Начать новую тему Ответить на тему
Статистика раздачи
Размер: 4.26 ГБ | Добавлен: 29 мар 2016, 23:44
Сидеров: 4    Личеров: 2
Автор Сообщение

СообщениеДобавлено: 29 мар 2016, 23:44 

Не в сети
Раздал: 12.95 ГБ
Скачал: 16.21 ГБ
Ратио: 0.799
Спасибо: 9374 / 0
Сообщения: 13963
Зарегистрирован: 28 янв 2016, 22:36
VA - TeleHits 9 (1970 - 1999)

Формат: DVD5, DVD Video, MPEG2, AC3
Песня: TeleHits 9 (1970 - 1999)
Жанр: Pop
Продолжительность: 02:12:41
Год выпуска: 2016

Видео: 720 x 576 (PAL 4:3) at 25.000 fps, MPEG2 Video at 4563 Kbps, 0.440 bit/pixel

Аудио: Dolby AC3, 2 ch, 192 Kbps, 48.0 KHz
01. Intro
02. Rockwell - Somebody's Watching Me (1984)
03. Blue System - Romeo And Juliet (1992)
04. Dana - Are You Still Mad At Me (1975)
05. The Teens - Never Gonna Tell No Lie To You (1980)
06. Drupi - Come va… (1978)
07. Mireille Mathieu - Feuer in Blut (1996)
08. Middle Of The Road - Queen Of Rock'n'Roll (1973)
09. Al Bano & Romina Power - Liberta (1990)
10. Les Humphries Singers - New Orleans / Live For Today (1974)
11. Nena - Ohne Ende (1993)
12. Touch & Go - Would You…? (1999)
13. Baskin & Copperfield - I Never See the Sun (1970)
14. Taco - Let's Face the Music (1984)
15. Toto Cutugno - Voglio andare a vivere in campagna (1995)
16. Joe Dassin - Salut (1979)
17. Sally Natasha Oldfield - Break Through The Rock (1991)
18. Monroes - Sunday People (1984)
19. Shocking Blue - Schocking You (1971)
20. Pupo - La notte (1996)
21. Ricky King - Le rêve"(1977)
22. Evelyn Thomas - Masquerade (1984)
23. Chris de Burgh - Tonight (1981)
24. Die Prinzen - Alles nur geklaut (1993)
25. Gianni Morandi, Umberto Tozzi, Enrico Ruggeri - Si puo dare di piu (1987) (1)
26. Alexandr Serov - Darling I'll Never Leave You (1992)
27. Rondo Veneziano - Musica… Fantasia (1990)
28. France Gall - Zozoi (1970)
29. Gigliola Cinquetti - Ja (1974)
30. Sarah Brightman feat. Chris Thompson - How Can Heaven Love Me (1996)
31. Julian Lennon - Valotte (1985)
32. Manfred Mann's Earth Band - "oybringer (1973)
33. Bell Book & Candle - Bliss In My Tears (1998)
34. Alice Dona & Serge Lama - Le Chanteur (1978)
35. Bonnie Tyler - Limelight (1996)
36. Erste Allgemeine Verunsicherung - "Hit-Medley (1987) (2)
Bonus:
37. Santana - Black Magic Woman (1971) (3)

02, 14, 18 - с реставрированным звуком

Примечания:
(1) 1-е место на San Remo 87
(2) Ba-Ba-Banküberfall / Heiße Nächte (in Palermo) / Märchenprinz / Fata Morgana
(3) Записано для Beat-Club 66 (24.4.71), но в эфир этот номер не вошёл

General
Полное имя : D:\TeleHits - 9 - German TV - 1970 - 1999\VIDEO_TS\VTS_01_2.VOB
Формат : MPEG-PS
Размер файла : 1 024 MiB
Продолжительность : 29mn 30s
Режим общего битрейта : Variable
Общий поток : 4 852 Kbps

Video
Идентификатор : 224 (0xE0)
Формат : MPEG Video
Версия формата : Version 2
Профиль формата : Main@Main
Параметр BVOP формата : Yes
Параметр матрицы формата : Custom
Параметр GOP формата : Variable
Format_Settings_PictureStructure : Frame
Продолжительность : 29mn 29s
Вид битрейта : Variable
Битрейт : 4 563 Kbps
Максимальный битрейт : 9 641 Kbps
Ширина : 720 pixels
Высота : 576 pixels
Соотношение сторон : 4:3
Частота кадров : 25.000 fps
Стандарт вещания : PAL
Цветовое пространство : YUV
Субдискретизация насыщенности : 4:2:0
Битовая глубина : 8 bits
Тип развёртки : Interlaced
Порядок развёртки : Top Field First
Метод сжатия : Lossy
Бит/(Пиксели*Кадры) : 0.440
Временной код первого кадра : 00:33:43:22
Оригинал временного кода : Group of pictures header
Gop_OpenClosed/String : Open
Размер потока : 963 MiB (94%)

Audio
Идентификатор : 189 (0xBD)-128 (0x80)
Формат : AC-3
Формат/Информация : Audio Coding 3
Расширение режима : CM (complete main)
Параметр Endianness формата : Big
Режим смешивания : DVD-Video
Продолжительность : 29mn 30s
Вид битрейта : Constant
Битрейт : 192 Kbps
Каналы : 2 channels
Расположение каналов : Front: L R
Частота : 48.0 KHz
Битовая глубина : 16 bits
Метод сжатия : Lossy
Задержка видео : -984ms
Размер потока : 40.5 MiB (4%)


Торрент:  Добавлен [29 мар 2016, 23:44]

Скачать торрент Магнет ссылка
Скачать торрент

Кем проверен:  
Размер:  4.26 ГБ
Скачали:  159
Здоровье: 100%
Приватный:  Нет (DHT включён)
Наш партнёр



Вернуться к началу
 Профиль  
 
Начать новую тему Ответить на тему  [ 1 сообщение ] 
   Похожие торренты   Автор   Торрент   Размер 
В этой теме нет новых непрочитанных сообщений. Creedence Clearwater Revival & John Fogerty - Travelin’ Band [1969 - 1970, Rock, DVD5] / Клипографии

lana-mini

16 | 3

3.74 ГБ

В этой теме нет новых непрочитанных сообщений. Планкетт и Маклейн / Plunkett and MaCleane [приключения, драма, 1999] DVD5, Mvo

jons3

0 | 0

3.84 ГБ

В этой теме нет новых непрочитанных сообщений. Беспредельный террор / Terror Firmer [ужасы, триллер, комедия, 1999] DVD5, Dvo

jons3

10 | 1

3.93 ГБ

В этой теме нет новых непрочитанных сообщений. Пожирательница мужчин / La Donna Lupo / The man-eater [драма, мелодрама, 1999] DVD5, Mvo+Sub

jons3

9 | 2

4.19 ГБ

В этой теме нет новых непрочитанных сообщений. Оккультная история Третьего рейха (4 части из 4) / The Occult History Of The Third Reich (Дэйв Флитон) [1999, документальный, DVD5] VO

lana-mini

6 | 2

4.37 ГБ




Вы не можете начинать темы
Вы не можете отвечать на сообщения
Вы не можете редактировать свои сообщения
Вы не можете удалять свои сообщения
Вы не можете добавлять вложения

Перейти:  
cron