Начать новую тему Ответить на тему
Статистика раздачи
Размер: 15.11 ГБ | Добавлен: 25 мар 2016, 23:57
Сидеров: 11    Личеров: 7
Автор Сообщение

СообщениеДобавлено: 25 мар 2016, 23:57 

Не в сети
Раздал: 12.95 ГБ
Скачал: 16.21 ГБ
Ратио: 0.799
Спасибо: 9374 / 0
Сообщения: 13963
Зарегистрирован: 28 янв 2016, 22:36
VA - Ultra Music Festival, Miami

Формат: SATRip, MPEG4, AVC, AAC
Песня: Ultra Music Festival, Miami 2016
Жанр: Big Room House, Electro House, Progressive House, Progressive Trance, Dutch House
Продолжительность: 12:22:54
Год выпуска: 2016
Доп. информация: Ultra Music Festival был основан в 1999 году. Традиционно ежегодно проходит в Майами, а также в других странах мира. С каждым годом UMF (Ultra Music Festival) посещают всё больше и больше меломанов со всего мира. С 2013 года UMF разбит на несколько дней, чтобы больше людей могло увидеть и услышать Сеты от популярных исполнителей электронной музыки. Перед вами представлена всего лишь некоторая часть видео с Ultra Music Festival, проходивший в Майами 18,19 и 20 марта 2016 года.


Видео: 1280x720 (16:9), 29,970 fps, AVC MPEG-4, ~2 770 Kbps, 0.100 bit/pixel
Аудио: 44,100 kHz, AAC 2 ch, 192 kbps
Формат : MPEG-4
Профиль формата : Base Media / Version 2
Идентификатор кодека : mp42 (isom/mp42)
Размер файла : 1,29 Гбайт
Продолжительность : 1 ч. 2 м.
Режим общего битрейта : Переменный
Общий поток : 2964 Кбит/сек
Дата кодирования : UTC 2016-03-19 12:45:15
Дата пометки : UTC 2016-03-19 12:45:15
gsst : 0
gstd : 3725153

Видео
Идентификатор : 1
Формат : AVC
Формат/Информация : Advanced Video Codec
Профиль формата :
Параметр CABAC формата : Да
Параметр ReFrames формата : 1 кадр
Идентификатор кодека : avc1
Идентификатор кодека/Информация : Advanced Video Coding
Продолжительность : 1 ч. 2 м.
Битрейт : 2770 Кбит/сек
Максимальный битрейт : 12,5 Мбит/сек
Ширина : 1280 пикселей
Высота : 720 пикселей
Соотношение сторон : 16:9
Режим частоты кадров : Постоянный
Частота кадров : 29,970 (30000/1001) кадров/сек
Цветовое пространство : YUV
Субдискретизация насыщенности : 4:2:0
Битовая глубина : 8 бит
Тип развёртки : Прогрессивная
Бит/(Пиксели*Кадры) : 0.100
Размер потока : 1,20 Гбайт (93%)
Дата пометки : UTC 2016-03-19 12:47:15
Цветовой диапазон : Limited
Основные цвета : BT.709
Характеристики трансфера : BT.709
Коэффициенты матрицы : BT.709

Аудио
Идентификатор : 2
Формат : AAC
Формат/Информация : Advanced Audio Codec
Профиль формата : LC
Идентификатор кодека : 40
Продолжительность : 1 ч. 2 м.
Вид битрейта : Переменный
Битрейт : 192 Кбит/сек
Максимальный битрейт : 202 Кбит/сек
Каналы : 2 канала
Расположение каналов : Front: L R
Частота : 44,1 КГц
Частота кадров : 43,066 кадра/сек (1024 spf)
Метод сжатия : С потерями
Размер потока : 85,3 Мбайт (6%)
Заголовок : IsoMedia File Produced by Google, 5-11-2011
Язык : English
Дата кодирования : UTC 2016-03-19 12:46:24
Дата пометки : UTC 2016-03-19 12:47:15








Видео: 1280x720 (16:9), 29,970 fps, AVC MPEG-4, ~3 149 Kbps, 0.114 bit/pixel
Аудио: 44,100 kHz, AAC 2 ch, 192 kbps
Формат : MPEG-4
Профиль формата : Base Media / Version 2
Идентификатор кодека : mp42 (isom/mp42)
Размер файла : 1,34 Гбайт
Продолжительность : 57 м.
Режим общего битрейта : Переменный
Общий поток : 3344 Кбит/сек
Дата кодирования : UTC 2016-03-21 00:40:51
Дата пометки : UTC 2016-03-21 00:40:51
gsst : 0
gstd : 3440453

Видео
Идентификатор : 1
Формат : AVC
Формат/Информация : Advanced Video Codec
Профиль формата :
Параметр CABAC формата : Да
Параметр ReFrames формата : 1 кадр
Идентификатор кодека : avc1
Идентификатор кодека/Информация : Advanced Video Coding
Продолжительность : 57 м.
Битрейт : 3149 Кбит/сек
Максимальный битрейт : 8108 Кбит/сек
Ширина : 1280 пикселей
Высота : 720 пикселей
Соотношение сторон : 16:9
Режим частоты кадров : Постоянный
Частота кадров : 29,970 (30000/1001) кадров/сек
Цветовое пространство : YUV
Субдискретизация насыщенности : 4:2:0
Битовая глубина : 8 бит
Тип развёртки : Прогрессивная
Бит/(Пиксели*Кадры) : 0.114
Размер потока : 1,26 Гбайт (94%)
Дата пометки : UTC 2016-03-21 00:42:52
Цветовой диапазон : Limited
Основные цвета : BT.709
Характеристики трансфера : BT.709
Коэффициенты матрицы : BT.709

Аудио
Идентификатор : 2
Формат : AAC
Формат/Информация : Advanced Audio Codec
Профиль формата : LC
Идентификатор кодека : 40
Продолжительность : 57 м.
Вид битрейта : Переменный
Битрейт : 192 Кбит/сек
Максимальный битрейт : 202 Кбит/сек
Каналы : 2 канала
Расположение каналов : Front: L R
Частота : 44,1 КГц
Частота кадров : 43,066 кадра/сек (1024 spf)
Метод сжатия : С потерями
Размер потока : 78,7 Мбайт (6%)
Заголовок : IsoMedia File Produced by Google, 5-11-2011
Язык : English
Дата кодирования : UTC 2016-03-21 00:42:07
Дата пометки : UTC 2016-03-21 00:42:52








Видео: 1280x720 (16:9), 29,970 fps, AVC MPEG-4, ~3 147 Kbps, 0.114 bit/pixel
Аудио: 44,100 kHz, AAC 2 ch, 192 kbps
Формат : MPEG-4
Профиль формата : Base Media / Version 2
Идентификатор кодека : mp42 (isom/mp42)
Размер файла : 1,40 Гбайт
Продолжительность : 59 м.
Режим общего битрейта : Переменный
Общий поток : 3341 Кбит/сек
Дата кодирования : UTC 2016-03-19 16:16:41
Дата пометки : UTC 2016-03-19 16:16:41
gsst : 0
gstd : 3592150

Видео
Идентификатор : 1
Формат : AVC
Формат/Информация : Advanced Video Codec
Профиль формата :
Параметр CABAC формата : Да
Параметр ReFrames формата : 1 кадр
Идентификатор кодека : avc1
Идентификатор кодека/Информация : Advanced Video Coding
Продолжительность : 59 м.
Битрейт : 3147 Кбит/сек
Максимальный битрейт : 12,7 Мбит/сек
Ширина : 1280 пикселей
Высота : 720 пикселей
Соотношение сторон : 16:9
Режим частоты кадров : Постоянный
Частота кадров : 29,970 (30000/1001) кадров/сек
Цветовое пространство : YUV
Субдискретизация насыщенности : 4:2:0
Битовая глубина : 8 бит
Тип развёртки : Прогрессивная
Бит/(Пиксели*Кадры) : 0.114
Размер потока : 1,32 Гбайт (94%)
Дата пометки : UTC 2016-03-19 16:18:50
Цветовой диапазон : Limited
Основные цвета : BT.709
Характеристики трансфера : BT.709
Коэффициенты матрицы : BT.709

Аудио
Идентификатор : 2
Формат : AAC
Формат/Информация : Advanced Audio Codec
Профиль формата : LC
Идентификатор кодека : 40
Продолжительность : 59 м.
Вид битрейта : Переменный
Битрейт : 192 Кбит/сек
Максимальный битрейт : 202 Кбит/сек
Каналы : 2 канала
Расположение каналов : Front: L R
Частота : 44,1 КГц
Частота кадров : 43,066 кадра/сек (1024 spf)
Метод сжатия : С потерями
Размер потока : 82,2 Мбайт (6%)
Заголовок : IsoMedia File Produced by Google, 5-11-2011
Язык : English
Дата кодирования : UTC 2016-03-19 16:17:53
Дата пометки : UTC 2016-03-19 16:18:50








Видео: 1280x720 (16:9), 29,970 fps, AVC MPEG-4, ~1 980 Kbps, 0.072 bit/pixel
Аудио: 44,100 kHz, AAC 2 ch, 192 kbps
Формат : MPEG-4
Профиль формата : Base Media
Идентификатор кодека : isom (isom/iso2/avc1/mp41)
Размер файла : 620 Мбайт
Продолжительность : 40 м.
Режим общего битрейта : Переменный
Общий поток : 2135 Кбит/сек
Программа кодирования : Lavf55.48.100

Видео
Идентификатор : 1
Формат : AVC
Формат/Информация : Advanced Video Codec
Профиль формата :
Параметр CABAC формата : Да
Параметр ReFrames формата : 4 кадра
Идентификатор кодека : avc1
Идентификатор кодека/Информация : Advanced Video Coding
Продолжительность : 40 м.
Битрейт : 1980 Кбит/сек
Ширина : 1280 пикселей
Высота : 720 пикселей
Соотношение сторон : 16:9
Режим частоты кадров : Постоянный
Частота кадров : 29,970 (30000/1001) кадров/сек
Цветовое пространство : YUV
Субдискретизация насыщенности : 4:2:0
Битовая глубина : 8 бит
Тип развёртки : Прогрессивная
Бит/(Пиксели*Кадры) : 0.072
Размер потока : 575 Мбайт (93%)
Библиотека кодирования : x264 core 142
Настройки программы : cabac=1 / ref=3 / deblock=1:0:0 / analyse=0x3:0x113 / me=hex / subme=7 / psy=1 / psy_rd=1.00:0.00 / mixed_ref=1 / me_range=16 / chroma_me=1 / trellis=1 / 8x8dct=1 / cqm=0 / deadzone=21,11 / fast_pskip=1 / chroma_qp_offset=-2 / threads=6 / lookahead_threads=1 / sliced_threads=0 / nr=0 / decimate=1 / interlaced=0 / bluray_compat=0 / constrained_intra=0 / bframes=3 / b_pyramid=2 / b_adapt=1 / b_bias=0 / direct=1 / weightb=1 / open_gop=0 / weightp=2 / keyint=30 / keyint_min=3 / scenecut=40 / intra_refresh=0 / rc_lookahead=30 / rc=2pass / mbtree=1 / bitrate=1980 / ratetol=1.0 / qcomp=0.60 / qpmin=0 / qpmax=69 / qpstep=4 / cplxblur=20.0 / qblur=0.5 / ip_ratio=1.40 / aq=1:1.00

Аудио
Идентификатор : 2
Формат : AAC
Формат/Информация : Advanced Audio Codec
Профиль формата : LC
Идентификатор кодека : 40
Продолжительность : 40 м.
Duration_LastFrame : -6 мс.
Вид битрейта : Переменный
Битрейт : 147 Кбит/сек
Максимальный битрейт : 192 Кбит/сек
Каналы : 2 канала
Расположение каналов : Front: L R
Частота : 44,1 КГц
Частота кадров : 43,066 кадра/сек (1024 spf)
Метод сжатия : С потерями
Размер потока : 42,8 Мбайт (7%)
Default : Да
Alternate group : 1








Видео: 1280x720 (16:9), 29,970 fps, AVC MPEG-4, ~1 980 Kbps, 0.072 bit/pixel
Аудио: 44,100 kHz, AAC 2 ch, 192 kbps
Формат : MPEG-4
Профиль формата : Base Media
Идентификатор кодека : isom (isom/iso2/avc1/mp41)
Размер файла : 868 Мбайт
Продолжительность : 56 м.
Режим общего битрейта : Переменный
Общий поток : 2139 Кбит/сек
Программа кодирования : Lavf55.48.100

Видео
Идентификатор : 1
Формат : AVC
Формат/Информация : Advanced Video Codec
Профиль формата :
Параметр CABAC формата : Да
Параметр ReFrames формата : 4 кадра
Идентификатор кодека : avc1
Идентификатор кодека/Информация : Advanced Video Coding
Продолжительность : 56 м.
Битрейт : 1980 Кбит/сек
Ширина : 1280 пикселей
Высота : 720 пикселей
Соотношение сторон : 16:9
Режим частоты кадров : Постоянный
Частота кадров : 30,000 кадров/сек
Цветовое пространство : YUV
Субдискретизация насыщенности : 4:2:0
Битовая глубина : 8 бит
Тип развёртки : Прогрессивная
Бит/(Пиксели*Кадры) : 0.072
Размер потока : 803 Мбайт (93%)
Библиотека кодирования : x264 core 142
Настройки программы : cabac=1 / ref=3 / deblock=1:0:0 / analyse=0x3:0x113 / me=hex / subme=7 / psy=1 / psy_rd=1.00:0.00 / mixed_ref=1 / me_range=16 / chroma_me=1 / trellis=1 / 8x8dct=1 / cqm=0 / deadzone=21,11 / fast_pskip=1 / chroma_qp_offset=-2 / threads=6 / lookahead_threads=1 / sliced_threads=0 / nr=0 / decimate=1 / interlaced=0 / bluray_compat=0 / constrained_intra=0 / bframes=3 / b_pyramid=2 / b_adapt=1 / b_bias=0 / direct=1 / weightb=1 / open_gop=0 / weightp=2 / keyint=30 / keyint_min=3 / scenecut=40 / intra_refresh=0 / rc_lookahead=30 / rc=2pass / mbtree=1 / bitrate=1980 / ratetol=1.0 / qcomp=0.60 / qpmin=0 / qpmax=69 / qpstep=4 / cplxblur=20.0 / qblur=0.5 / ip_ratio=1.40 / aq=1:1.00

Аудио
Идентификатор : 2
Формат : AAC
Формат/Информация : Advanced Audio Codec
Профиль формата : LC
Идентификатор кодека : 40
Продолжительность : 56 м.
Вид битрейта : Переменный
Битрейт : 152 Кбит/сек
Максимальный битрейт : 192 Кбит/сек
Каналы : 2 канала
Расположение каналов : Front: L R
Частота : 44,1 КГц
Частота кадров : 43,066 кадра/сек (1024 spf)
Метод сжатия : С потерями
Размер потока : 61,6 Мбайт (7%)
Default : Да
Alternate group : 1








Видео: 1280x720 (16:9), 29,970 fps, AVC MPEG-4, ~3 056 Kbps, 0.111 bit/pixel
Аудио: 44,100 kHz, AAC 2 ch, 192 kbps

Формат : MPEG-4
Профиль формата : Base Media / Version 2
Идентификатор кодека : mp42 (isom/mp42)
Размер файла : 1,34 Гбайт
Продолжительность : 59 м.
Режим общего битрейта : Переменный
Общий поток : 3250 Кбит/сек
Дата кодирования : UTC 2016-03-21 17:05:18
Дата пометки : UTC 2016-03-21 17:05:18
gsst : 0
gstd : 3552211

Видео
Идентификатор : 1
Формат : AVC
Формат/Информация : Advanced Video Codec
Профиль формата :
Параметр CABAC формата : Да
Параметр ReFrames формата : 1 кадр
Идентификатор кодека : avc1
Идентификатор кодека/Информация : Advanced Video Coding
Продолжительность : 59 м.
Битрейт : 3056 Кбит/сек
Максимальный битрейт : 9919 Кбит/сек
Ширина : 1280 пикселей
Высота : 720 пикселей
Соотношение сторон : 16:9
Режим частоты кадров : Постоянный
Частота кадров : 29,970 (30000/1001) кадров/сек
Цветовое пространство : YUV
Субдискретизация насыщенности : 4:2:0
Битовая глубина : 8 бит
Тип развёртки : Прогрессивная
Бит/(Пиксели*Кадры) : 0.111
Размер потока : 1,26 Гбайт (94%)
Дата пометки : UTC 2016-03-21 17:07:49
Цветовой диапазон : Limited
Основные цвета : BT.709
Характеристики трансфера : BT.709
Коэффициенты матрицы : BT.709

Аудио
Идентификатор : 2
Формат : AAC
Формат/Информация : Advanced Audio Codec
Профиль формата : LC
Идентификатор кодека : 40
Продолжительность : 59 м.
Вид битрейта : Переменный
Битрейт : 192 Кбит/сек
Максимальный битрейт : 202 Кбит/сек
Каналы : 2 канала
Расположение каналов : Front: L R
Частота : 44,1 КГц
Частота кадров : 43,066 кадра/сек (1024 spf)
Метод сжатия : С потерями
Размер потока : 81,3 Мбайт (6%)
Заголовок : IsoMedia File Produced by Google, 5-11-2011
Язык : English
Дата кодирования : UTC 2016-03-21 17:06:44
Дата пометки : UTC 2016-03-21 17:07:49








Видео: 1280x720 (16:9), 29,970 fps, AVC MPEG-4, ~2 875 Kbps, 0.104 bit/pixel
Аудио: 44,100 kHz, AAC 2 ch, 192 kbps
Формат : MPEG-4
Профиль формата : Base Media / Version 2
Идентификатор кодека : mp42 (isom/mp42)
Размер файла : 1,26 Гбайт
Продолжительность : 58 м.
Режим общего битрейта : Переменный
Общий поток : 3070 Кбит/сек
Дата кодирования : UTC 2016-03-20 07:08:05
Дата пометки : UTC 2016-03-20 07:08:05
gsst : 0
gstd : 3535631

Видео
Идентификатор : 1
Формат : AVC
Формат/Информация : Advanced Video Codec
Профиль формата :
Параметр CABAC формата : Да
Параметр ReFrames формата : 1 кадр
Идентификатор кодека : avc1
Идентификатор кодека/Информация : Advanced Video Coding
Продолжительность : 58 м.
Битрейт : 2875 Кбит/сек
Максимальный битрейт : 9442 Кбит/сек
Ширина : 1280 пикселей
Высота : 720 пикселей
Соотношение сторон : 16:9
Режим частоты кадров : Постоянный
Частота кадров : 29,970 (30000/1001) кадров/сек
Цветовое пространство : YUV
Субдискретизация насыщенности : 4:2:0
Битовая глубина : 8 бит
Тип развёртки : Прогрессивная
Бит/(Пиксели*Кадры) : 0.104
Размер потока : 1,18 Гбайт (94%)
Дата пометки : UTC 2016-03-20 07:13:25
Цветовой диапазон : Limited
Основные цвета : BT.709
Характеристики трансфера : BT.709
Коэффициенты матрицы : BT.709

Аудио
Идентификатор : 2
Формат : AAC
Формат/Информация : Advanced Audio Codec
Профиль формата : LC
Идентификатор кодека : 40
Продолжительность : 58 м.
Вид битрейта : Переменный
Битрейт : 192 Кбит/сек
Максимальный битрейт : 202 Кбит/сек
Каналы : 2 канала
Расположение каналов : Front: L R
Частота : 44,1 КГц
Частота кадров : 43,066 кадра/сек (1024 spf)
Метод сжатия : С потерями
Размер потока : 80,9 Мбайт (6%)
Заголовок : IsoMedia File Produced by Google, 5-11-2011
Язык : English
Дата кодирования : UTC 2016-03-20 07:11:17
Дата пометки : UTC 2016-03-20 07:13:25








Видео: 1280x720 (16:9), 29,970 fps, AVC MPEG-4, ~3 151 Kbps, 0.114 bit/pixel
Аудио: 44,100 kHz, AAC 2 ch, 192 kbps
Формат : MPEG-4
Профиль формата : Base Media / Version 2
Идентификатор кодека : mp42 (isom/mp42)
Размер файла : 922 Мбайт
Продолжительность : 38 м.
Режим общего битрейта : Переменный
Общий поток : 3345 Кбит/сек
Дата кодирования : UTC 2016-03-20 22:35:09
Дата пометки : UTC 2016-03-20 22:35:09
gsst : 0
gstd : 2313171

Видео
Идентификатор : 1
Формат : AVC
Формат/Информация : Advanced Video Codec
Профиль формата :
Параметр CABAC формата : Да
Параметр ReFrames формата : 1 кадр
Идентификатор кодека : avc1
Идентификатор кодека/Информация : Advanced Video Coding
Продолжительность : 38 м.
Битрейт : 3151 Кбит/сек
Максимальный битрейт : 8007 Кбит/сек
Ширина : 1280 пикселей
Высота : 720 пикселей
Соотношение сторон : 16:9
Режим частоты кадров : Постоянный
Частота кадров : 29,970 (30000/1001) кадров/сек
Цветовое пространство : YUV
Субдискретизация насыщенности : 4:2:0
Битовая глубина : 8 бит
Тип развёртки : Прогрессивная
Бит/(Пиксели*Кадры) : 0.114
Размер потока : 869 Мбайт (94%)
Дата пометки : UTC 2016-03-20 22:38:03
Цветовой диапазон : Limited
Основные цвета : BT.709
Характеристики трансфера : BT.709
Коэффициенты матрицы : BT.709

Аудио
Идентификатор : 2
Формат : AAC
Формат/Информация : Advanced Audio Codec
Профиль формата : LC
Идентификатор кодека : 40
Продолжительность : 38 м.
Вид битрейта : Переменный
Битрейт : 192 Кбит/сек
Максимальный битрейт : 202 Кбит/сек
Каналы : 2 канала
Расположение каналов : Front: L R
Частота : 44,1 КГц
Частота кадров : 43,066 кадра/сек (1024 spf)
Метод сжатия : С потерями
Размер потока : 52,9 Мбайт (6%)
Заголовок : IsoMedia File Produced by Google, 5-11-2011
Язык : English
Дата кодирования : UTC 2016-03-20 22:36:44
Дата пометки : UTC 2016-03-20 22:38:03








Видео: 1280x720 (16:9), 29,970 fps, AVC MPEG-4, ~1 980 Kbps, 0.072 bit/pixel
Аудио: 44,100 kHz, AAC 2 ch, 192 kbps
Формат : MPEG-4
Профиль формата : Base Media
Идентификатор кодека : isom (isom/iso2/avc1/mp41)
Размер файла : 1,10 Гбайт
Продолжительность : 1 ч. 13 м.
Режим общего битрейта : Переменный
Общий поток : 2139 Кбит/сек
Программа кодирования : Lavf55.48.100

Видео
Идентификатор : 1
Формат : AVC
Формат/Информация : Advanced Video Codec
Профиль формата :
Параметр CABAC формата : Да
Параметр ReFrames формата : 4 кадра
Идентификатор кодека : avc1
Идентификатор кодека/Информация : Advanced Video Coding
Продолжительность : 1 ч. 13 м.
Битрейт : 1980 Кбит/сек
Ширина : 1280 пикселей
Высота : 720 пикселей
Соотношение сторон : 16:9
Режим частоты кадров : Постоянный
Частота кадров : 30,000 кадров/сек
Цветовое пространство : YUV
Субдискретизация насыщенности : 4:2:0
Битовая глубина : 8 бит
Тип развёртки : Прогрессивная
Бит/(Пиксели*Кадры) : 0.072
Размер потока : 1,02 Гбайт (93%)
Библиотека кодирования : x264 core 142
Настройки программы : cabac=1 / ref=3 / deblock=1:0:0 / analyse=0x3:0x113 / me=hex / subme=7 / psy=1 / psy_rd=1.00:0.00 / mixed_ref=1 / me_range=16 / chroma_me=1 / trellis=1 / 8x8dct=1 / cqm=0 / deadzone=21,11 / fast_pskip=1 / chroma_qp_offset=-2 / threads=6 / lookahead_threads=1 / sliced_threads=0 / nr=0 / decimate=1 / interlaced=0 / bluray_compat=0 / constrained_intra=0 / bframes=3 / b_pyramid=2 / b_adapt=1 / b_bias=0 / direct=1 / weightb=1 / open_gop=0 / weightp=2 / keyint=30 / keyint_min=3 / scenecut=40 / intra_refresh=0 / rc_lookahead=30 / rc=2pass / mbtree=1 / bitrate=1980 / ratetol=1.0 / qcomp=0.60 / qpmin=0 / qpmax=69 / qpstep=4 / cplxblur=20.0 / qblur=0.5 / ip_ratio=1.40 / aq=1:1.00

Аудио
Идентификатор : 2
Формат : AAC
Формат/Информация : Advanced Audio Codec
Профиль формата : LC
Идентификатор кодека : 40
Продолжительность : 1 ч. 13 м.
Вид битрейта : Переменный
Битрейт : 152 Кбит/сек
Максимальный битрейт : 192 Кбит/сек
Каналы : 2 канала
Расположение каналов : Front: L R
Частота : 44,1 КГц
Частота кадров : 43,066 кадра/сек (1024 spf)
Метод сжатия : С потерями
Размер потока : 79,9 Мбайт (7%)
Default : Да
Alternate group : 1








Видео: 1280x720 (16:9), 29,970 fps, AVC MPEG-4, ~2 537 Kbps, 0.092 bit/pixel
Аудио: 44,100 kHz, AAC 2 ch, 192 kbps
Формат : MPEG-4
Профиль формата : Base Media / Version 2
Идентификатор кодека : mp42 (isom/mp42)
Размер файла : 1,09 Гбайт
Продолжительность : 56 м.
Режим общего битрейта : Переменный
Общий поток : 2732 Кбит/сек
Дата кодирования : UTC 2016-03-19 09:12:46
Дата пометки : UTC 2016-03-19 09:12:46
gsst : 0
gstd : 3414841

Видео
Идентификатор : 1
Формат : AVC
Формат/Информация : Advanced Video Codec
Профиль формата :
Параметр CABAC формата : Да
Параметр ReFrames формата : 1 кадр
Идентификатор кодека : avc1
Идентификатор кодека/Информация : Advanced Video Coding
Продолжительность : 56 м.
Битрейт : 2537 Кбит/сек
Максимальный битрейт : 9036 Кбит/сек
Ширина : 1280 пикселей
Высота : 720 пикселей
Соотношение сторон : 16:9
Режим частоты кадров : Постоянный
Частота кадров : 29,970 (30000/1001) кадров/сек
Цветовое пространство : YUV
Субдискретизация насыщенности : 4:2:0
Битовая глубина : 8 бит
Тип развёртки : Прогрессивная
Бит/(Пиксели*Кадры) : 0.092
Размер потока : 1,01 Гбайт (93%)
Дата пометки : UTC 2016-03-19 09:16:15
Цветовой диапазон : Limited
Основные цвета : BT.709
Характеристики трансфера : BT.709
Коэффициенты матрицы : BT.709

Аудио
Идентификатор : 2
Формат : AAC
Формат/Информация : Advanced Audio Codec
Профиль формата : LC
Идентификатор кодека : 40
Продолжительность : 56 м.
Вид битрейта : Переменный
Битрейт : 192 Кбит/сек
Максимальный битрейт : 202 Кбит/сек
Каналы : 2 канала
Расположение каналов : Front: L R
Частота : 44,1 КГц
Частота кадров : 43,066 кадра/сек (1024 spf)
Метод сжатия : С потерями
Размер потока : 78,2 Мбайт (7%)
Заголовок : IsoMedia File Produced by Google, 5-11-2011
Язык : English
Дата кодирования : UTC 2016-03-19 09:14:54
Дата пометки : UTC 2016-03-19 09:16:15








Видео: 1280x720 (16:9), 29,970 fps, AVC MPEG-4, ~3 011 Kbps, 0.109 bit/pixel
Аудио: 44,100 kHz, AAC 2 ch, 202 kbps
Формат : MPEG-4
Профиль формата : Base Media / Version 2
Идентификатор кодека : mp42 (isom/mp42)
Размер файла : 2,04 Гбайт
Продолжительность : 1 ч. 31 м.
Режим общего битрейта : Переменный
Общий поток : 3205 Кбит/сек
Дата кодирования : UTC 2016-03-20 07:07:15
Дата пометки : UTC 2016-03-20 07:07:15
gsst : 0
gstd : 5473221

Видео
Идентификатор : 1
Формат : AVC
Формат/Информация : Advanced Video Codec
Профиль формата :
Параметр CABAC формата : Да
Параметр ReFrames формата : 1 кадр
Идентификатор кодека : avc1
Идентификатор кодека/Информация : Advanced Video Coding
Продолжительность : 1 ч. 31 м.
Битрейт : 3011 Кбит/сек
Максимальный битрейт : 10,2 Мбит/сек
Ширина : 1280 пикселей
Высота : 720 пикселей
Соотношение сторон : 16:9
Режим частоты кадров : Постоянный
Частота кадров : 29,970 (30000/1001) кадров/сек
Цветовое пространство : YUV
Субдискретизация насыщенности : 4:2:0
Битовая глубина : 8 бит
Тип развёртки : Прогрессивная
Бит/(Пиксели*Кадры) : 0.109
Размер потока : 1,92 Гбайт (94%)
Дата пометки : UTC 2016-03-20 07:12:38
Цветовой диапазон : Limited
Основные цвета : BT.709
Характеристики трансфера : BT.709
Коэффициенты матрицы : BT.709

Аудио
Идентификатор : 2
Формат : AAC
Формат/Информация : Advanced Audio Codec
Профиль формата : LC
Идентификатор кодека : 40
Продолжительность : 1 ч. 31 м.
Вид битрейта : Переменный
Битрейт : 192 Кбит/сек
Максимальный битрейт : 202 Кбит/сек
Каналы : 2 канала
Расположение каналов : Front: L R
Частота : 44,1 КГц
Частота кадров : 43,066 кадра/сек (1024 spf)
Метод сжатия : С потерями
Размер потока : 125 Мбайт (6%)
Заголовок : IsoMedia File Produced by Google, 5-11-2011
Язык : English
Дата кодирования : UTC 2016-03-20 07:10:33
Дата пометки : UTC 2016-03-20 07:12:38








Видео: 1280x720 (16:9), 29,970 fps, AVC MPEG-4, ~3 153 Kbps, 0.114 bit/pixel
Аудио: 44,100 kHz, AAC 2 ch, 202 kbps
Формат : MPEG-4
Профиль формата : Base Media / Version 2
Идентификатор кодека : mp42 (isom/mp42)
Размер файла : 1,35 Гбайт
Продолжительность : 57 м.
Режим общего битрейта : Переменный
Общий поток : 3348 Кбит/сек
Дата кодирования : UTC 2016-03-20 08:53:14
Дата пометки : UTC 2016-03-20 08:53:14
gsst : 0
gstd : 3472660

Видео
Идентификатор : 1
Формат : AVC
Формат/Информация : Advanced Video Codec
Профиль формата :
Параметр CABAC формата : Да
Параметр ReFrames формата : 1 кадр
Идентификатор кодека : avc1
Идентификатор кодека/Информация : Advanced Video Coding
Продолжительность : 57 м.
Битрейт : 3153 Кбит/сек
Максимальный битрейт : 7977 Кбит/сек
Ширина : 1280 пикселей
Высота : 720 пикселей
Соотношение сторон : 16:9
Режим частоты кадров : Постоянный
Частота кадров : 29,970 (30000/1001) кадров/сек
Цветовое пространство : YUV
Субдискретизация насыщенности : 4:2:0
Битовая глубина : 8 бит
Тип развёртки : Прогрессивная
Бит/(Пиксели*Кадры) : 0.114
Размер потока : 1,27 Гбайт (94%)
Дата пометки : UTC 2016-03-20 08:56:24
Цветовой диапазон : Limited
Основные цвета : BT.709
Характеристики трансфера : BT.709
Коэффициенты матрицы : BT.709

Аудио
Идентификатор : 2
Формат : AAC
Формат/Информация : Advanced Audio Codec
Профиль формата : LC
Идентификатор кодека : 40
Продолжительность : 57 м.
Вид битрейта : Переменный
Битрейт : 192 Кбит/сек
Максимальный битрейт : 202 Кбит/сек
Каналы : 2 канала
Расположение каналов : Front: L R
Частота : 44,1 КГц
Частота кадров : 43,066 кадра/сек (1024 spf)
Метод сжатия : С потерями
Размер потока : 79,5 Мбайт (6%)
Заголовок : IsoMedia File Produced by Google, 5-11-2011
Язык : English
Дата кодирования : UTC 2016-03-20 08:54:55
Дата пометки : UTC 2016-03-20 08:56:24








Видео: 1280x720 (16:9), 29,970 fps, AVC MPEG-4, ~2 422 Kbps, 0.088 bit/pixel
Аудио: 44,100 kHz, AAC 2 ch, 202 kbps
Формат : MPEG-4
Профиль формата : Base Media / Version 2
Идентификатор кодека : mp42 (isom/mp42)
Размер файла : 566 Мбайт
Продолжительность : 30 м.
Режим общего битрейта : Переменный
Общий поток : 2616 Кбит/сек
Дата кодирования : UTC 2016-03-21 17:03:39
Дата пометки : UTC 2016-03-21 17:03:39
gsst : 0
gstd : 1813338

Видео
Идентификатор : 1
Формат : AVC
Формат/Информация : Advanced Video Codec
Профиль формата :
Параметр CABAC формата : Да
Параметр ReFrames формата : 1 кадр
Параметр GOP формата : M=1, N=60
Идентификатор кодека : avc1
Идентификатор кодека/Информация : Advanced Video Coding
Продолжительность : 30 м.
Битрейт : 2422 Кбит/сек
Максимальный битрейт : 9526 Кбит/сек
Ширина : 1280 пикселей
Высота : 720 пикселей
Соотношение сторон : 16:9
Режим частоты кадров : Постоянный
Частота кадров : 30,000 кадров/сек
Цветовое пространство : YUV
Субдискретизация насыщенности : 4:2:0
Битовая глубина : 8 бит
Тип развёртки : Прогрессивная
Бит/(Пиксели*Кадры) : 0.088
Размер потока : 523 Мбайт (93%)
Дата пометки : UTC 2016-03-21 17:05:05

Аудио
Идентификатор : 2
Формат : AAC
Формат/Информация : Advanced Audio Codec
Профиль формата : LC
Идентификатор кодека : 40
Продолжительность : 30 м.
Вид битрейта : Переменный
Битрейт : 192 Кбит/сек
Максимальный битрейт : 202 Кбит/сек
Каналы : 2 канала
Расположение каналов : Front: L R
Частота : 44,1 КГц
Частота кадров : 43,066 кадра/сек (1024 spf)
Метод сжатия : С потерями
Размер потока : 41,5 Мбайт (7%)
Заголовок : IsoMedia File Produced by Google, 5-11-2011
Дата кодирования : UTC 2016-03-21 17:04:25
Дата пометки : UTC 2016-03-21 17:05:05







Торрент:  Добавлен [25 мар 2016, 23:57]

Скачать торрент Магнет ссылка
Скачать торрент

Кем проверен:  
Размер:  15.11 ГБ
Скачали:  159
Здоровье: 100%
Приватный:  Нет (DHT включён)
Наш партнёр



Вернуться к началу
 Профиль  
 
Начать новую тему Ответить на тему  [ 1 сообщение ] 
   Похожие торренты   Автор   Торрент   Размер 
В этой теме нет новых непрочитанных сообщений. VA - BacauHouseMafia vol.8 [2016, Trance, Progressive House, Deep House, Club House, House, Tech House, Electro House, Future House, Techno, MP3]

lana-mini

6 | 2

1.5 ГБ

В этой теме нет новых непрочитанных сообщений. VA - BacauHouseMafia vol.6 [2016, Trance, Progressive House, Deep House, Club House, House, Tech House, Electro House, Techno, MP3]

lana-mini

19 | 7

2.29 ГБ

В этой теме нет новых непрочитанных сообщений. VA - BacauHouseMafia vol.4 [2016, Trance, Progressive House, Deep House, Club House, House, Tech House, Electro House, MP3]

lana-mini

19 | 10

1.77 ГБ

В этой теме нет новых непрочитанных сообщений. VA - BacauHouseMafia vol.7 [2016, Trance, Progressive House, Deep House, Club House, House, Tech House, Electro House, MP3]

lana-mini

3 | 8

1.83 ГБ

В этой теме нет новых непрочитанных сообщений. VA - BacauHouseMafia vol.1 [2016, Trance, Progressive House, Electro House, Deep House, Club House, House, Jackin House, MP3]

lana-mini

27 | 2

1.24 ГБ




Вы не можете начинать темы
Вы не можете отвечать на сообщения
Вы не можете редактировать свои сообщения
Вы не можете удалять свои сообщения
Вы не можете добавлять вложения

Перейти:  
cron