Начать новую тему Ответить на тему
Статистика раздачи
Размер: 3.89 ГБ | Добавлен: 17 мар 2016, 12:59
Сидеров: 11    Личеров: 8
Автор Сообщение

СообщениеДобавлено: 17 мар 2016, 12:59 

Не в сети
Раздал: 12.95 ГБ
Скачал: 16.21 ГБ
Ратио: 0.799
Спасибо: 9374 / 0
Сообщения: 13963
Зарегистрирован: 28 янв 2016, 22:36
Donna Summer - The video collection

Формат: DVD5, DVD Video, MPEG2, AC3
Песня: The video collection
Жанр: Disco
Продолжительность: 01:28:40
Год выпуска: 1990

Видео: 720x576 (PAL 4:3) at 25 fps, MPEG-2, ~ 5560 Kbps, 0.536 Bits/(Pixel*Frame)

Аудио: AC3 48, Hz, 2 ch, 192, kbps
Доп. информация:

01. The wanderer
02. Love is in control
03. The woman in me
04. State of independence
05. She works hard for money
06. Unconditional love
07. Supernatural love
08. There goes my baby
09. All systems go
10. I don't wanna get hurt
11. This time I know
12. Love's about to change
13. I feel love (live)
14. McArthur Park
15. Melody of love
16. I feel love
17. I will go with you
General
Полное имя : D:\DONNA_SUMMER\VIDEO_TS\VTS_01_2.VOB
Формат : MPEG-PS
Размер файла : 1 024 MiB
Продолжительность : 24mn 23s
Режим общего битрейта : Variable
Общий поток : 5 869 Kbps

Video
Идентификатор : 224 (0xE0)
Формат : MPEG Video
Версия формата : Version 2
Профиль формата : Main@Main
Параметр BVOP формата : Yes
Параметр матрицы формата : Custom
Параметр GOP формата : Variable
Format_Settings_PictureStructure : Frame
Продолжительность : 24mn 23s
Вид битрейта : Variable
Битрейт : 5 560 Kbps
Максимальный битрейт : 8 500 Kbps
Ширина : 720 pixels
Высота : 576 pixels
Соотношение сторон : 4:3
Частота кадров : 25.000 fps
Стандарт вещания : PAL
Цветовое пространство : YUV
Субдискретизация насыщенности : 4:2:0
Битовая глубина : 8 bits
Тип развёртки : Interlaced
Порядок развёртки : Top Field First
Метод сжатия : Lossy
Бит/(Пиксели*Кадры) : 0.536
Временной код первого кадра : 00:28:54:02
Оригинал временного кода : Group of pictures header
Размер потока : 970 MiB (95%)
Основные цвета : BT.601 NTSC
Характеристики трансфера : BT.601
Коэффициенты матрицы : BT.601

Audio
Идентификатор : 189 (0xBD)-128 (0x80)
Формат : AC-3
Формат/Информация : Audio Coding 3
Расширение режима : CM (complete main)
Параметр Endianness формата : Big
Режим смешивания : DVD-Video
Продолжительность : 24mn 23s
Вид битрейта : Constant
Битрейт : 192 Kbps
Каналы : 2 channels
Расположение каналов : Front: L R
Частота : 48.0 KHz
Битовая глубина : 16 bits
Метод сжатия : Lossy
Задержка видео : -320ms
Размер потока : 33.5 MiB (3%)


Торрент:  Добавлен [17 мар 2016, 12:59]

Скачать торрент Магнет ссылка
Скачать торрент

Кем проверен:  
Размер:  3.89 ГБ
Скачали:  706
Здоровье: 100%
Приватный:  Нет (DHT включён)
Наш партнёр



Вернуться к началу
 Профиль  
 
Начать новую тему Ответить на тему  [ 1 сообщение ] 
   Похожие торренты   Автор   Торрент   Размер 
В этой теме нет новых непрочитанных сообщений. Donna Summer - The Video Hits Collection [Disco-rock, dance, 2016] WEBRip

jons3

55 | 15

1.01 ГБ

В этой теме нет новых непрочитанных сообщений. Otep - Video Collection [2016, Nu Metal, Alternative Metal, DVD5] / Клипографии

lana-mini

4 | 5

3.04 ГБ

В этой теме нет новых непрочитанных сообщений. Primal Fear - Video Collection [2016, Heavy Metal, Power Metal, DVD5 (custom)] / Клипографии

lana-mini

14 | 2

3.29 ГБ

В этой теме нет новых непрочитанных сообщений. ABBA - Gracias Por La Musica (Deluxe Edition) [2014, Euro Disco, Pop Rock, DVD5] / Клипографии

lana-mini

3 | 4

2.66 ГБ

В этой теме нет новых непрочитанных сообщений. C. C. Catch - The Video Hits Collection [Pop, disco, 2015] WEBRip

jons3

60 | 8

827.91 МБ




Вы не можете начинать темы
Вы не можете отвечать на сообщения
Вы не можете редактировать свои сообщения
Вы не можете удалять свои сообщения
Вы не можете добавлять вложения

Перейти:  
cron