Начать новую тему Ответить на тему
Статистика раздачи
Размер: 7.06 ГБ | Добавлен: 17 мар 2016, 12:59
Сидеров: 6    Личеров: 2
Автор Сообщение

СообщениеДобавлено: 17 мар 2016, 12:59 

Не в сети
Раздал: 12.95 ГБ
Скачал: 16.21 ГБ
Ратио: 0.799
Спасибо: 9374 / 0
Сообщения: 13963
Зарегистрирован: 28 янв 2016, 22:36
Toto - Baloise Session 2015

Формат: HDTV, TS, H.264, AC3
Песня: Baloise Session 2015
Жанр: Soft rock
Продолжительность: 01:09:35
Год выпуска: 2016

Видео: 1280x720p (16:9), 50 fps, AVC, ~ 12800 Kbps, 0.277 Bits/(Pixel*Frame)

Аудио 1: AC3, 448 kbps, 48 kHz, 5.1 ch
Аудио 2: MP2, 192 kbps, 48 kHz, 2.0 ch
Аудио 3: MP2, 192 kbps, 48 kHz, 2.0 ch
Аудио 4: MP2, 192 kbps, 48 kHz, 2.0 ch
Доп. информация:

01. Running Out of Time
02. I'll Supply the Love
03. Hydra
04. Hold the Line
05. Afraid of Love
06. Pamela
07. Without Your Love
08. Little Wing
09. Orphan
10. Rosanna
11. Africa
General
ID : 1 (0x1)
Complete name : E:\Downloads\Toto. Baloise Session 2015.ts
Format : MPEG-TS
File size : 7.06 GiB
Duration : 1h 9mn
Overall bit rate mode : Variable
Overall bit rate : 14.5 Mbps

Video
ID : 5111 (0x13F7)
Menu ID : 10302 (0x283E)
Format : AVC
Format/Info : Advanced Video Codec
Format profile : High@L4
Format settings, CABAC : Yes
Format settings, ReFrames : 4 frames
Codec ID : 27
Duration : 1h 9mn
Bit rate : 12.8 Mbps
Width : 1 280 pixels
Height : 720 pixels
Display aspect ratio : 16:9
Frame rate : 50.000 fps
Color space : YUV
Chroma subsampling : 4:2:0
Bit depth : 8 bits
Scan type : Progressive
Bits/(Pixel*Frame) : 0.277
Stream size : 6.21 GiB (88%)

Audio #1
ID : 5112 (0x13F8)
Menu ID : 10302 (0x283E)
Format : AC-3
Format/Info : Audio Coding 3
Mode extension : CM (complete main)
Format settings, Endianness : Big
Codec ID : 6
Duration : 1h 9mn
Bit rate mode : Constant
Bit rate : 448 Kbps
Channel(s) : 6 channels
Channel positions : Front: L C R, Side: L R, LFE
Sampling rate : 48.0 KHz
Compression mode : Lossy
Stream size : 223 MiB (3%)
Language : Multiple languages

Audio #2
ID : 5113 (0x13F9)
Menu ID : 10302 (0x283E)
Format : MPEG Audio
Format version : Version 1
Format profile : Layer 2
Codec ID : 3
Duration : 1h 9mn
Bit rate mode : Constant
Bit rate : 192 Kbps
Channel(s) : 2 channels
Sampling rate : 48.0 KHz
Compression mode : Lossy
Stream size : 95.6 MiB (1%)
Language : German

Audio #3
ID : 5114 (0x13FA)
Menu ID : 10302 (0x283E)
Format : MPEG Audio
Format version : Version 1
Format profile : Layer 2
Codec ID : 3
Duration : 1h 9mn
Bit rate mode : Constant
Bit rate : 192 Kbps
Channel(s) : 2 channels
Sampling rate : 48.0 KHz
Compression mode : Lossy
Stream size : 95.6 MiB (1%)
Language : French

Audio #4
ID : 5115 (0x13FB)
Menu ID : 10302 (0x283E)
Format : MPEG Audio
Format version : Version 1
Format profile : Layer 2
Codec ID : 3
Duration : 1h 9mn
Bit rate mode : Constant
Bit rate : 192 Kbps
Channel(s) : 2 channels
Sampling rate : 48.0 KHz
Compression mode : Lossy
Stream size : 95.6 MiB (1%)

Text
ID : 5116 (0x13FC)-100
Menu ID : 10302 (0x283E)
Format : Teletext
Language : German

Menu
ID : 5110 (0x13F6)
Menu ID : 10302 (0x283E)
Duration : 1h 9mn
List : 5111 (0x13F7) (AVC) / 5112 (0x13F8) (AC-3, Multiple languages) / 5113 (0x13F9) (MPEG Audio, German) / 5114 (0x13FA) (MPEG Audio, French) / 5115 (0x13FB) (MPEG Audio) / 5116 (0x13FC) ()
Language : / Multiple languages / German / French



Торрент:  Добавлен [17 мар 2016, 12:59]

Скачать торрент Магнет ссылка
Скачать торрент

Кем проверен:  
Размер:  7.06 ГБ
Скачали:  28
Здоровье: 100%
Приватный:  Нет (DHT включён)
Наш партнёр



Вернуться к началу
 Профиль  
 
Начать новую тему Ответить на тему  [ 1 сообщение ] 
   Похожие торренты   Автор   Торрент   Размер 
В этой теме нет новых непрочитанных сообщений. America - Hearts (Hybrid Multichannel SACD Audio Fidelity 2016) [1975, Rock, Folk Rock, Soft Rock, Pop Rock, FLAC]

lana-mini

4 | 2

384.64 МБ

В этой теме нет новых непрочитанных сообщений. America - Homecoming (Hybrid Multichannel SACD Audio Fidelity 2015) [1972, Rock, Folk Rock, Soft Rock, Pop Rock, FLAC]

lana-mini

0 | 2

285.24 МБ

В этой теме нет новых непрочитанных сообщений. Phil Collins – Dance Into the Light (Deluxe) [2016, Pop Rock, Classic Rock, Soft Rock, MP3]

lana-mini

27 | 14

247.14 МБ

В этой теме нет новых непрочитанных сообщений. Phil Collins - Hello, I Must Be Going! (Deluxe Edition) [2016, Pop Rock, Classic Rock, Soft Rock, MP3]

lana-mini

36 | 6

226.56 МБ

В этой теме нет новых непрочитанных сообщений. Elton John - Wonderful Crazy Night (Deluxe Edition) [2016, Pop Rock, Classic Rock, Soft Rock, FLAC]

lana-mini

33 | 4

335.23 МБ




Вы не можете начинать темы
Вы не можете отвечать на сообщения
Вы не можете редактировать свои сообщения
Вы не можете удалять свои сообщения
Вы не можете добавлять вложения

Перейти:  
cron