Начать новую тему Ответить на тему
Статистика раздачи
Размер: 3.99 ГБ | Добавлен: 17 мар 2016, 12:59
Сидеров: 17    Личеров: 2
Автор Сообщение

СообщениеДобавлено: 17 мар 2016, 12:59 

Не в сети
Раздал: 12.95 ГБ
Скачал: 16.21 ГБ
Ратио: 0.799
Спасибо: 9374 / 0
Сообщения: 13963
Зарегистрирован: 28 янв 2016, 22:36
Steven Tyler - Front And Center

Формат: HDTV, TS, MPEG2, AC3
Песня: Front And Center
Жанр: Rock
Продолжительность: 00:56:03
Год выпуска: 2016

Видео: 1920x1080i (16:9), 29.970 fps, MPEG2 ~ 9493 Kbps, 0.153 Bits/(Pixel*Frame)

Аудио: AC3, 192 Kbps, 2 channels, 48.0 KHz
Доп. информация:

01. Sweet Emotion
02. What It Takes
03. Love Is Your Name - with Lyndsey Lee and Eric Paslay
04. Livin' On The Edge
05. Jaded
06. Cryin'
07. Walk This Way
08. Dream On
09. Piece Of My Heart - with Nuno Bettencourt, Lyndsey Lee and Eric Paslay
10. closing credits

Запись: September 10, 2015
Steven Tyler - vocals, piano
Marti Frederiksen - guitar, vocals, musical director
Suzie McNeil - vocals, harmonica, piano, percussion
Rebecca-Lynn Howard - bass, vocals
Andrew Mactaggart - guitar
Elisha Hoffman - mandolin, banjo, ganjo
Sarah Tomek - drums

General
ID : 1 (0x1)
Complete name : J:\Steven Tyler - Front And Center 2015.ts
Format : MPEG-TS
File size : 3.99 GiB
Duration : 56mn 3s
Overall bit rate mode : Variable
Overall bit rate : 10.2 Mbps

Video
ID : 224 (0xE0)
Menu ID : 1 (0x1)
Format : MPEG Video
Format version : Version 2
Format profile : Main@High
Format settings, BVOP : Yes
Format settings, Matrix : Custom
Format settings, GOP : Variable
Format settings, picture struc : Frame
Codec ID : 2
Duration : 56mn 2s
Bit rate mode : Variable
Bit rate : 9 493 Kbps
Maximum bit rate : 12.0 Mbps
Width : 1 920 pixels
Height : 1 080 pixels
Display aspect ratio : 16:9
Frame rate : 29.970 fps
Color space : YUV
Chroma subsampling : 4:2:0
Bit depth : 8 bits
Scan type : Interlaced
Scan order : Top Field First
Compression mode : Lossy
Bits/(Pixel*Frame) : 0.153
Time code of first frame : 00:00:00;00
Time code source : Group of pictures header
GOP, Open/Closed : Open
GOP, Open/Closed of first fram : Closed
Stream size : 3.72 GiB (93%)

Audio
ID : 128 (0x80)
Menu ID : 1 (0x1)
Format : AC-3
Format/Info : Audio Coding 3
Mode extension : CM (complete main)
Format settings, Endianness : Big
Codec ID : 129
Duration : 56mn 2s
Bit rate mode : Constant
Bit rate : 192 Kbps
Channel(s) : 2 channels
Channel positions : Front: L R
Sampling rate : 48.0 KHz
Compression mode : Lossy
Delay relative to video : 4ms
Stream size : 77.0 MiB (2%)
Language : English



Торрент:  Добавлен [17 мар 2016, 12:59]

Скачать торрент Магнет ссылка
Скачать торрент

Кем проверен:  
Размер:  3.99 ГБ
Скачали:  160
Здоровье: 100%
Приватный:  Нет (DHT включён)
Наш партнёр



Вернуться к началу
 Профиль  
 
Начать новую тему Ответить на тему  [ 1 сообщение ] 
   Похожие торренты   Автор   Торрент   Размер 
В этой теме нет новых непрочитанных сообщений. Bonnie Tyler - 25 Best Songs [2016, Pop, Rock, Soul, MP3]

Magnat

19 | 2

187.09 МБ

В этой теме нет новых непрочитанных сообщений. VA - Музыкальный поединок - Bonnie Tyler & Chris de Burgh [2016, Pop, Rock, MP3]

Magnat

13 | 3

497.95 МБ

В этой теме нет новых непрочитанных сообщений. Tyler Jakes - Mojo Suicide [2016, Hard Rock, Blues, MP3]

lana-mini

15 | 2

116.04 МБ

В этой теме нет новых непрочитанных сообщений. Преображенцы Аркадия Мамонтова (Эфир от 11.01.2016) (Аркадий Мамонтов) [2016, документальный, HDTV 1080i] / Blu-Ray / BDRip / HDTV

lana-mini

2 | 3

2.24 ГБ

В этой теме нет новых непрочитанных сообщений. Мы вместе! (Эфир от 18.03.2016) [2016, митинг-концерт, HDTV 1080i] / Blu-Ray / BDRip / HDTV

lana-mini

0 | 1

7.12 ГБ




Вы не можете начинать темы
Вы не можете отвечать на сообщения
Вы не можете редактировать свои сообщения
Вы не можете удалять свои сообщения
Вы не можете добавлять вложения

Перейти:  
cron