Начать новую тему Ответить на тему
Статистика раздачи
Размер: 1.37 ГБ | Добавлен: 17 мар 2016, 12:59
Сидеров: 9    Личеров: 2
Автор Сообщение

СообщениеДобавлено: 17 мар 2016, 12:59 

Не в сети
Раздал: 12.95 ГБ
Скачал: 16.21 ГБ
Ратио: 0.799
Спасибо: 9374 / 0
Сообщения: 13963
Зарегистрирован: 28 янв 2016, 22:36
Apocalyptica & Avanti! - Chamber Orchestra. Wacken Open Air

Формат: HDTVRip, MKV, H.264, AC3
Песня: Chamber Orchestra. Wacken Open Air
Жанр: Cello metal
Продолжительность: 00:58:21
Год выпуска: 2014

Видео: 1280x576 (16:9), 50,000 fps, MPEG4 AVC (x264), ~2087 Kbps avg, 0.105 bit/pixel
Аудио: 48 kHz, AC3, 2 ch ~ 256 Kbps

Дополнительная информация:


01. Quutamo
02. Fight Fire With Fire
03. Rage of Poseidon
04. Bittersweet
05. Creation Of Notes
06. Grace
07. Path
08. Ludwig - Wonderland
09. Inquisition Symphony
10. Nothing Else Matters
11. Hall of the Mountain King

Общее
Уникальный идентификатор : 206538619540691424192008789394305348336 (0x9B61E425FBC5DD1B93A04D8E4C5C72F0)
Полное имя : F:\TREKER\ТЕМР\apocalyptica_avant_chamber_[rutracker.in].mkv
Формат : Matroska
Версия формата : Version 2
Размер файла : 1,37 Гбайт
Продолжительность : 58 м.
Общий поток : 3356 Кбит/сек
Название фильма : apocalyptica_avant_chamber_[rutracker.in]
Дата кодирования : UTC 2016-03-13 07:43:01
Программа кодирования : mkvmerge v4.0.0 ('The Stars were mine') сборка от Jun 6 2010 16:18:42
Библиотека кодирования : libebml v1.0.0 + libmatroska v1.0.0
Attachements : cover.jpg

Видео
Идентификатор : 1
Формат : AVC
Формат/Информация : Advanced Video Codec
Профиль формата :
Параметр CABAC формата : Да
Параметр ReFrames формата : 6 кадров
Идентификатор кодека : V_MPEG4/ISO/AVC
Продолжительность : 58 м.
Битрейт : 2087 Кбит/сек
Ширина : 1024 пикселя
Высота : 576 пикселей
Соотношение сторон : 16:9
Режим частоты кадров : Постоянный
Частота кадров : 50,000 кадров/сек
Цветовое пространство : YUV
Субдискретизация насыщенности : 4:2:0
Битовая глубина : 8 бит
Тип развёртки : Прогрессивная
Бит/(Пиксели*Кадры) : 0.105
Размер потока : 1,24 Гбайт (90%)
Заголовок : apocalyptica_avant_chamber_[rutracker.in]
Библиотека кодирования : x264 core 146 r2538 121396c
Настройки программы : cabac=1 / ref=6 / deblock=1:-1:-1 / analyse=0x3:0x133 / me=umh / subme=10 / psy=1 / psy_rd=1.00:0.15 / mixed_ref=1 / me_range=24 / chroma_me=1 / trellis=2 / 8x8dct=1 / cqm=0 / deadzone=21,11 / fast_pskip=0 / chroma_qp_offset=-3 / threads=12 / lookahead_threads=1 / sliced_threads=0 / nr=0 / decimate=1 / interlaced=0 / bluray_compat=0 / constrained_intra=0 / bframes=3 / b_pyramid=2 / b_adapt=2 / b_bias=0 / direct=1 / weightb=1 / open_gop=0 / weightp=2 / keyint=250 / keyint_min=25 / scenecut=40 / intra_refresh=0 / rc_lookahead=50 / rc=abr / mbtree=1 / bitrate=2087 / ratetol=1.0 / qcomp=0.69 / qpmin=0 / qpmax=69 / qpstep=4 / ip_ratio=1.40 / aq=1:1.00
Язык : English
Default : Нет
Forced : Нет

Аудио
Идентификатор : 2
Формат : AC-3
Формат/Информация : Audio Coding 3
Расширение режима : CM (complete main)
Параметр Endianness формата : Big
Идентификатор кодека : A_AC3
Продолжительность : 58 м.
Вид битрейта : Постоянный
Битрейт : 256 Кбит/сек
Каналы : 2 канала
Расположение каналов : Front: L R
Частота : 48,0 КГц
Метод сжатия : С потерями
Размер потока : 107 Мбайт (8%)
Заголовок : Оригинал
Язык : English
Default : Нет
Forced : Нет

Меню
00:00:00.000 : en:01. Quutamo
00:04:19.720 : en:02. Fight Fire With Fire
00:07:22.160 : en:03. Rage of Poseidon
00:14:25.080 : en:04. Bittersweet
00:24:43.360 : en:05. Creation Of Notes
00:29:33.120 : en:06. Grace
00:33:44.880 : en:07. Path
00:37:12.640 : en:08. Ludwig - Wonderland
00:43:23.280 : en:09. Inquisition Symphony
00:48:59.960 : en:10. Nothing Else Matters
00:53:23.880 : en:11. Hall of the Mountain King








Торрент:  Добавлен [17 мар 2016, 12:59]

Скачать торрент Магнет ссылка
Скачать торрент

Кем проверен:  
Размер:  1.37 ГБ
Скачали:  29
Здоровье: 100%
Приватный:  Нет (DHT включён)
Наш партнёр



Вернуться к началу
 Профиль  
 
Начать новую тему Ответить на тему  [ 1 сообщение ] 
   Похожие торренты   Автор   Торрент   Размер 
В этой теме нет новых непрочитанных сообщений. Apocalyptica & Avanti - Chamber Orchestra. Wacken Open Air [2014, Cello metal, Neo-classical metal, Progressive metal, Symphonic metal, Alternative metal, HDTV 720p]

lana-mini

2 | 2

5.27 ГБ

В этой теме нет новых непрочитанных сообщений. Ritual Chamber - Obscurations (To Feast On The Seraphim) [2016, Death Metal, MP3]

lana-mini

11 | 2

138.7 МБ

В этой теме нет новых непрочитанных сообщений. Вакен: Громче, чем в Аду [2D/3D] / Wacken: Louder Than Hell [2D/3D] (Норберт Хайткер) [2014, документальный, музыка, Blu-ray 3D, 1080p] DEU / Фильмы в 3D (Blu-Ray

lana-mini

0 | 6

45.09 ГБ

В этой теме нет новых непрочитанных сообщений. Аванти! / Avanti! [Мелодрама, комедия, экранизация, 1972] BDRip, Mvo

jons3

0 | 0

2.13 ГБ

В этой теме нет новых непрочитанных сообщений. Аванти! / Avanti! [Мелодрама, комедия, экранизация, 1972] BDRip 720p, Mvo

jons3

0 | 2

9.95 ГБ




Вы не можете начинать темы
Вы не можете отвечать на сообщения
Вы не можете редактировать свои сообщения
Вы не можете удалять свои сообщения
Вы не можете добавлять вложения

Перейти:  
cron