Начать новую тему Ответить на тему
Статистика раздачи
Размер: 5.27 ГБ | Добавлен: 13 мар 2016, 01:24
Сидеров: 2    Личеров: 2
Автор Сообщение

СообщениеДобавлено: 13 мар 2016, 01:24 

Не в сети
Раздал: 12.95 ГБ
Скачал: 16.21 ГБ
Ратио: 0.799
Спасибо: 9374 / 0
Сообщения: 13963
Зарегистрирован: 28 янв 2016, 22:36
Apocalyptica & Avanti - Chamber Orchestra. Wacken Open Air

Формат: HDTV, MKV, H.264, AC3, MP2, MP3
Песня: Chamber Orchestra. Wacken Open Air 2014
Жанр: Cello metal, Neo-classical metal, Progressive metal, Symphonic metal, Alternative metal
Продолжительность: 00:58:30
Год выпуска: 2014

Видео: 1280x720 (16:9), 50 fps, 11200 Kbps, 0.242 bit/pixel

Аудио 1: MP2, 256 kbps, 48 kHz, 2 ch
Аудио 2: MP2, 192 kbps, 48 kHz, 2 ch
Аудио 3: AC3, 448 kbps, 48 kHz, 2 chMP2, 192 kbps, 48 kHz, 2 ch
Аудио 4: MP2, 192 kbps, 48 kHz, 2 ch

Доп. информация:

01. Quutamo
02. Fight Fire With Fire
03. Rage of Poseidon
04. Bittersweet
05. Creation Of Notes
06. Grace
07. Path
08. Ludwig - Wonderland
09. Inquisition Symphony
10. Nothing Else Matters
11. Hall of the Mountain King
General
ID : 1 (0x1)
Complete name : D:\Downloads\Apocalyptica & Avanti! Chamber Orchestra. Wacken Open Air 2014.ts
Format : MPEG-TS
File size : 5.27 GiB
Duration : 58mn 30s
Overall bit rate mode : Variable
Overall bit rate : 12.9 Mbps

Video
ID : 6410 (0x190A)
Menu ID : 1 (0x1)
Format : AVC
Format/Info : Advanced Video Codec
Format profile :
Format settings, CABAC : Yes
Format settings, ReFrames : 5 frames
Codec ID : 27
Duration : 58mn 30s
Bit rate : 11.2 Mbps
Width : 1 280 pixels
Height : 720 pixels
Display aspect ratio : 16:9
Frame rate : 50.000 fps
Color space : YUV
Chroma subsampling : 4:2:0
Bit depth : 8 bits
Scan type : Progressive
Bits/(Pixel*Frame) : 0.242
Stream size : 4.56 GiB (87%)
Color primaries : BT.709
Transfer characteristics : BT.709
Matrix coefficients : BT.709

Audio #1
ID : 6420 (0x1914)
Menu ID : 1 (0x1)
Format : MPEG Audio
Format version : Version 1
Format profile : Layer 2
Codec ID : 3
Duration : 58mn 29s
Bit rate mode : Constant
Bit rate : 256 Kbps
Channel(s) : 2 channels
Sampling rate : 48.0 KHz
Compression mode : Lossy
Stream size : 107 MiB (2%)
Language : German

Audio #2
ID : 6421 (0x1915)
Menu ID : 1 (0x1)
Format : MPEG Audio
Format version : Version 1
Format profile : Layer 2
Codec ID : 3
Duration : 58mn 29s
Bit rate mode : Constant
Bit rate : 192 Kbps
Channel(s) : 2 channels
Sampling rate : 48.0 KHz
Compression mode : Lossy
Stream size : 80.3 MiB (1%)

Audio #3
ID : 6422 (0x1916)
Menu ID : 1 (0x1)
Format : AC-3
Format/Info : Audio Coding 3
Mode extension : CM (complete main)
Format settings, Endianness : Big
Codec ID : 6
Duration : 58mn 29s
Bit rate mode : Constant
Bit rate : 448 Kbps
Channel(s) : 2 channels
Channel positions : Front: L R
Sampling rate : 48.0 KHz
Bit depth : 16 bits
Compression mode : Lossy
Stream size : 187 MiB (3%)
Language : German

Audio #4
ID : 6423 (0x1917)
Menu ID : 1 (0x1)
Format : MPEG Audio
Format version : Version 1
Format profile : Layer 2
Codec ID : 3
Duration : 58mn 29s
Bit rate mode : Constant
Bit rate : 192 Kbps
Channel(s) : 2 channels
Sampling rate : 48.0 KHz
Compression mode : Lossy
Stream size : 80.3 MiB (1%)
Language : Multiple languages

Text
ID : 6430 (0x191E)-100
Menu ID : 1 (0x1)
Format : Teletext
Language : German

Menu
ID : 6400 (0x1900)
Menu ID : 1 (0x1)
Duration : 58mn 30s
List : 6410 (0x190A) (AVC) / 6420 (0x1914) (MPEG Audio, German) / 6421 (0x1915) (MPEG Audio) / 6422 (0x1916) (AC-3, German) / 6423 (0x1917) (MPEG Audio, Multiple languages) / 6430 (0x191E) ()
Language : / German / / German / Multiple languages



Торрент:  Добавлен [13 мар 2016, 01:24]

Скачать торрент Магнет ссылка
Скачать торрент

Кем проверен:  
Размер:  5.27 ГБ
Скачали:  0
Здоровье: 100%
Приватный:  Нет (DHT включён)
Наш партнёр



Вернуться к началу
 Профиль  
 
Начать новую тему Ответить на тему  [ 1 сообщение ] 
   Похожие торренты   Автор   Торрент   Размер 
В этой теме нет новых непрочитанных сообщений. Apocalyptica & Avanti! - Chamber Orchestra. Wacken Open Air [2014, Cello metal, HDTVRip]

lana-mini

9 | 2

1.37 ГБ

В этой теме нет новых непрочитанных сообщений. Paul Gilbert - I Can Destroy [2015, Instrumental Rock, Heavy Metal, , Hard Rock, Power Pop, Neo-Classical Metal, Speed Metal, Progressive Metal, FLAC]

lana-mini

13 | 5

407.95 МБ

В этой теме нет новых непрочитанных сообщений. VA - Symphonic & Opera Metal Vol. 1-2 [2015-2016, Gothic Metal, Symphonic Metal, Power Metal, FLAC]

lana-mini

6 | 3

2.19 ГБ

В этой теме нет новых непрочитанных сообщений. VA - Рок в Качалку - Мотивация (vol. 4) [2016, Heavy Metal, Alternative Metal, Industrial Metal, Metalcore, Electonic, MP3]

lana-mini

87 | 3

305.41 МБ

В этой теме нет новых непрочитанных сообщений. Joe Stump - The Dark Lord Rises [2015, Progressive Metal, Neo Classical Metal, FLAC]

lana-mini

5 | 2

516.44 МБ




Вы не можете начинать темы
Вы не можете отвечать на сообщения
Вы не можете редактировать свои сообщения
Вы не можете удалять свои сообщения
Вы не можете добавлять вложения

Перейти:  
cron