Начать новую тему Ответить на тему
Статистика раздачи
Размер: 7.74 ГБ | Добавлен: 13 мар 2016, 01:24
Сидеров: 5    Личеров: 3
Автор Сообщение

СообщениеДобавлено: 13 мар 2016, 01:24 

Не в сети
Раздал: 12.95 ГБ
Скачал: 16.21 ГБ
Ратио: 0.799
Спасибо: 9374 / 0
Сообщения: 13963
Зарегистрирован: 28 янв 2016, 22:36
Yes - The Union Tour

Формат: DVD9, DVD Video, MPEG2, AC3, PCM
Песня: The Union Tour
Жанр: Progressive Rock
Продолжительность: 01:58:43
Год выпуска: 1991

Видео: 720x480 (NTSC 4:3) at 29.970 fps, MPEG-2, ~ 6848 Kbps, 0.661 Bits/(Pixel*Frame)

Аудио 1: AC3 48, Hz, 6 ch, 448, kbps
Аудио 2: PCM 48, Hz, 2 ch, 1536, kbps

Доп. информация:

01. Intro: Firebird Suite
02. Yours Is No Disgrace (15:06)
03. Rhythm of Love (5:04)
04. Heart of the Sunrise (10:16)
05. Clap (6:26)
06. Owner of a Lonely Heart (6:24)
07. I've Seen All Good People (7:26)
08. Solly's Beard (6:25)
09. Saving My Heart (4:55)
10. The Fish / Amazing Grace (10:05)
11. Rick Wakeman Solo (4:21)
12. Awaken (19:01)
13. Roundabout (10:14)

Band

Jon Anderson / vocals
Chris Squire / bass, backing vocals
Bill Bruford / drums
Alan White / drums
Trevor Rabin / guitars
Steve Howe / guitars, backing vocals
Rick Wakeman / keyboards
Tony Kaye / keyboards
General
Полное имя : D:\Yes_91\VTS_01_1.VOB
Формат : MPEG-PS
Размер файла : 1 024 MiB
Продолжительность : 15mn 52s
Режим общего битрейта : Variable
Общий поток : 9 011 Kbps

Video
Идентификатор : 224 (0xE0)
Формат : MPEG Video
Версия формата : Version 2
Профиль формата : Main@Main
Параметр BVOP формата : Yes
Параметр матрицы формата : Custom
Параметр GOP формата : M=3, N=15
Format_Settings_PictureStructure : Frame
Продолжительность : 15mn 52s
Вид битрейта : Variable
Битрейт : 6 848 Kbps
Максимальный битрейт : 9 800 Kbps
Ширина : 720 pixels
Высота : 480 pixels
Соотношение сторон : 4:3
Частота кадров : 29.970 fps
Стандарт вещания : NTSC
Цветовое пространство : YUV
Субдискретизация насыщенности : 4:2:0
Битовая глубина : 8 bits
Тип развёртки : Interlaced
Порядок развёртки : Top Field First
Метод сжатия : Lossy
Бит/(Пиксели*Кадры) : 0.661
Размер потока : 778 MiB (76%)

Audio #1
Идентификатор : 189 (0xBD)-129 (0x81)
Формат : AC-3
Формат/Информация : Audio Coding 3
Расширение режима : CM (complete main)
Параметр Endianness формата : Big
Режим смешивания : DVD-Video
Продолжительность : 15mn 52s
Вид битрейта : Constant
Битрейт : 448 Kbps
Каналы : 6 channels
Расположение каналов : Front: L C R, Side: L R, LFE
Частота : 48.0 KHz
Битовая глубина : 16 bits
Метод сжатия : Lossy
Размер потока : 50.9 MiB (5%)

Audio #2
Идентификатор : 189 (0xBD)-160 (0xA0)
Формат : PCM
Параметр Endianness формата : Big
Параметр Sign формата : Signed
Режим смешивания : DVD-Video
Продолжительность : 15mn 52s
Вид битрейта : Constant
Битрейт : 1 536 Kbps
Каналы : 2 channels
Частота : 48.0 KHz
Битовая глубина : 16 bits
Размер потока : 174 MiB (17%)


Торрент:  Добавлен [13 мар 2016, 01:24]

Скачать торрент Магнет ссылка
Скачать торрент

Кем проверен:  
Размер:  7.74 ГБ
Скачали:  161
Здоровье: 100%
Приватный:  Нет (DHT включён)
Наш партнёр



Вернуться к началу
 Профиль  
 
Начать новую тему Ответить на тему  [ 1 сообщение ] 
   Похожие торренты   Автор   Торрент   Размер 
В этой теме нет новых непрочитанных сообщений. Yes - Greatest Video Hits - 1977-1991 [1991, Art Rock, Progressive Rock, DVDRip] / Клипографии

lana-mini

16 | 8

1.11 ГБ

В этой теме нет новых непрочитанных сообщений. Nordic Union - Nordic Union (Japanese Edition) [2016, Melodic Hard Rock, FLAC]

lana-mini

13 | 2

400.53 МБ

В этой теме нет новых непрочитанных сообщений. The Answer - 412 Days Of Rock N Roll [2011, Hard Rock, DVD9] / Клипографии

lana-mini

17 | 6

7.09 ГБ

В этой теме нет новых непрочитанных сообщений. Peter Gabriel - Secret World Live [1994, Art Rock, Prog Rock, DVD9]

lana-mini

0 | 3

7.55 ГБ

В этой теме нет новых непрочитанных сообщений. The Veer Union - Decade [2016, Modern Rock, Post-Grunge, MP3]

lana-mini

36 | 4

85.72 МБ




Вы не можете начинать темы
Вы не можете отвечать на сообщения
Вы не можете редактировать свои сообщения
Вы не можете удалять свои сообщения
Вы не можете добавлять вложения

Перейти:  
cron