Начать новую тему Ответить на тему
Статистика раздачи
Размер: 7.55 ГБ | Добавлен: 13 мар 2016, 01:24
Сидеров: 0    Личеров: 3
Автор Сообщение

СообщениеДобавлено: 13 мар 2016, 01:24 

Не в сети
Раздал: 12.95 ГБ
Скачал: 16.21 ГБ
Ратио: 0.799
Спасибо: 9374 / 0
Сообщения: 13963
Зарегистрирован: 28 янв 2016, 22:36
Peter Gabriel - Secret World Live

Формат: DVD9, DVD Video, MPEG2, AC3, DTD
Песня: Secret World Live
Жанр: Art Rock, Prog Rock
Продолжительность: 02:1:00
Год выпуска: 1994

Видео: 720x576 (PAL 16:9) at 25 fps, MPEG-2, ~ 5416 Kbps, 0.522 bit/pixel

Аудио 1: AC3 48, Hz, 6 ch, 448, kbps
Аудио 2: AC3 48, Hz, 2 ch, 192, kbps
Аудио 3: DTS 48, Hz, 2 ch, 1510, kbps

Доп. информация:

01. Come Talk to Me
02. Steam
03. Across the Water
04. Slow Marimbas
05. Shaking the Tree
06. Blood of Eden
07. San Jacinto
08. Kiss That Frog
09. Washing of the Water
10. Solsbury Hill
11. Digging in the Dirt
12. Sledgehammer
13. Secret World
14. Don't Give Up
15. In Your Eyes

Bonus

1. Timelapse Film of the stage set up in Berlin, Germany
2. The Making of Peter Gabriel's Secret World Live
3. Steam (Quiet Version) - With photo montage from the Secret World tour
4. A film taster of Peter Gabriel's Growing Up tour

Весной 1993-го стартовало глобальное мировое турне Питера Гэйбриэла, на основе которого был сделан концерт Secret World Live.
General
Полное имя : D:\Detective\Peter.Gabriel–Secret.World.Live\VIDEO_TS\VTS_01_3.VOB
Формат : MPEG-PS
Размер файла : 1 024 MiB
Продолжительность : 18mn 32s
Режим общего битрейта : Variable
Общий поток : 7 719 Kbps

Video
Идентификатор : 224 (0xE0)
Формат : MPEG Video
Версия формата : Version 2
Профиль формата : Main@Main
Параметр BVOP формата : Yes
Параметр матрицы формата : Default
Параметр GOP формата : M=3, N=13
Format_Settings_PictureStructure : Frame
Продолжительность : 18mn 32s
Вид битрейта : Variable
Битрейт : 5 416 Kbps
Максимальный битрейт : 7 200 Kbps
Ширина : 720 pixels
Высота : 576 pixels
Соотношение сторон : 2.40:1
Частота кадров : 25.000 fps
Стандарт вещания : PAL
Цветовое пространство : YUV
Субдискретизация насыщенности : 4:2:0
Битовая глубина : 8 bits
Тип развёртки : Interlaced
Порядок развёртки : Top Field First
Метод сжатия : Lossy
Бит/(Пиксели*Кадры) : 0.522
Временной код первого кадра : 10:39:46:12
Оригинал временного кода : Group of pictures header
Gop_OpenClosed/String : Open
Размер потока : 718 MiB (70%)
Основные цвета : BT.601 PAL
Характеристики трансфера : BT.470 System B, BT.470 System G
Коэффициенты матрицы : BT.601

Audio #1
Идентификатор : 189 (0xBD)-129 (0x81)
Формат : AC-3
Формат/Информация : Audio Coding 3
Расширение режима : CM (complete main)
Параметр Endianness формата : Big
Режим смешивания : DVD-Video
Продолжительность : 18mn 32s
Вид битрейта : Constant
Битрейт : 448 Kbps
Каналы : 6 channels
Расположение каналов : Front: L C R, Side: L R, LFE
Частота : 48.0 KHz
Битовая глубина : 16 bits
Метод сжатия : Lossy
Задержка видео : -128ms
Размер потока : 59.4 MiB (6%)

Audio #2
Идентификатор : 189 (0xBD)-130 (0x82)
Формат : AC-3
Формат/Информация : Audio Coding 3
Расширение режима : CM (complete main)
Параметр Endianness формата : Big
Режим смешивания : DVD-Video
Продолжительность : 18mn 32s
Вид битрейта : Constant
Битрейт : 192 Kbps
Каналы : 2 channels
Расположение каналов : Front: L R
Частота : 48.0 KHz
Битовая глубина : 16 bits
Метод сжатия : Lossy
Задержка видео : -128ms
Размер потока : 25.5 MiB (2%)

Audio #3
Идентификатор : 189 (0xBD)-136 (0x88)
Формат : DTS
Формат/Информация : Digital Theater Systems
Режим : 16
Параметр Endianness формата : Big
Режим смешивания : DVD-Video
Продолжительность : 18mn 32s
Вид битрейта : Constant
Битрейт : 1 510 Kbps
Каналы : 6 channels
Расположение каналов : Front: L C R, Side: L R, LFE
Частота : 48.0 KHz
Битовая глубина : 24 bits
Метод сжатия : Lossy
Задержка видео : -181ms
Размер потока : 200 MiB (20%)




Торрент:  Добавлен [13 мар 2016, 01:24]

Скачать торрент Магнет ссылка
Скачать торрент

Кем проверен:  
Размер:  7.55 ГБ
Скачали:  41
Здоровье: ???%
Приватный:  Нет (DHT включён)
Наш партнёр



Вернуться к началу
 Профиль  
 
Начать новую тему Ответить на тему  [ 1 сообщение ] 
   Похожие торренты   Автор   Торрент   Размер 
В этой теме нет новых непрочитанных сообщений. Elton John - Rare Masters (2CD) [1992, Pop Rock, Prog Rock, Ballad, Glam, Classic Rock, FLAC]

lana-mini

25 | 6

842.12 МБ

В этой теме нет новых непрочитанных сообщений. Ian Gillan - Live in Edinburgh [1980, Rock, DVD9]

lana-mini

5 | 6

6.09 ГБ

В этой теме нет новых непрочитанных сообщений. Black Stone Cherry - Thank You Livin’ Live [2014, Rock, Hard Rock, Southern Rock, BD-Remux 1080i]

lana-mini

0 | 6

21.25 ГБ

В этой теме нет новых непрочитанных сообщений. Keith Emerson - Nighthawks [1981, Prog Rock, Art Rock, Soundtrack, MP3]

lana-mini

0 | 1

93.03 МБ

В этой теме нет новых непрочитанных сообщений. Frank Zappa – Austin 26 Oct 1973 [2006, Prog Rock, Jazz-Rock, Fusion, Avantgarde, MP3]

lana-mini

7 | 2

182.5 МБ




Вы не можете начинать темы
Вы не можете отвечать на сообщения
Вы не можете редактировать свои сообщения
Вы не можете удалять свои сообщения
Вы не можете добавлять вложения

Перейти:  
cron