Начать новую тему Ответить на тему
Статистика раздачи
Размер: 6.09 ГБ | Добавлен: 09 мар 2016, 23:52
Сидеров: 5    Личеров: 6
Автор Сообщение

СообщениеДобавлено: 09 мар 2016, 23:52 

Не в сети
Раздал: 12.95 ГБ
Скачал: 16.21 ГБ
Ратио: 0.799
Спасибо: 9374 / 0
Сообщения: 13963
Зарегистрирован: 28 янв 2016, 22:36
Ian Gillan - Live in Edinburgh

Формат: DVD9, DVD Video, MPEG2, AC3
Песня: Live in Edinburgh 1980
Жанр: Rock
Продолжительность: 01:17:24
Год выпуска: 1980

Видео: 720x576 (PAL 4:3) at 25 fps, MPEG-2, ~ 5909 Kbps, 0.570 bit/pixel

Аудио: AC3 48, Hz, 2 ch, 192, kbps

Доп. информация:

Live in Edinburgh 1980
01. Unchain Your Brain
02. Trouble
03. If You Believe Me
04. Mutually Assured Destruction [M.A.D.]
05. No Easy Way

Bonus Gillan Archive Footage
01. Vengeance
02. Smoke On The Water
03. Sleeping On The Job

Bonus Features
01. Cannonball
02. Interviews with JOHN McCOY, BERNIE TORME, COLIN TOWNS and MICK UNDERWOOD
03. History of GILLAN by Joe Geesin
General
Полное имя : D:\Ian Gillan Live in Edinburgh 1980\VIDEO_TS\VTS_05_1.VOB
Формат : MPEG-PS
Размер файла : 1 024 MiB
Продолжительность : 22mn 59s
Режим общего битрейта : Variable
Общий поток : 6 225 Kbps

Video
Идентификатор : 224 (0xE0)
Формат : MPEG Video
Версия формата : Version 2
Профиль формата : Main@Main
Параметр BVOP формата : Yes
Параметр матрицы формата : Custom
Параметр GOP формата : M=3, N=15
Format_Settings_PictureStructure : Frame
Продолжительность : 22mn 59s
Вид битрейта : Variable
Битрейт : 5 909 Kbps
Максимальный битрейт : 8 000 Kbps
Ширина : 720 pixels
Высота : 576 pixels
Соотношение сторон : 4:3
Частота кадров : 25.000 fps
Стандарт вещания : PAL
Цветовое пространство : YUV
Субдискретизация насыщенности : 4:2:0
Битовая глубина : 8 bits
Тип развёртки : Interlaced
Порядок развёртки : Bottom Field First
Метод сжатия : Lossy
Бит/(Пиксели*Кадры) : 0.570
Временной код первого кадра : 00:00:00:00
Оригинал временного кода : Group of pictures header
Gop_OpenClosed/String : Open
Размер потока : 972 MiB (95%)
GOP, Open/Closed of first frame : Closed

Audio
Идентификатор : 189 (0xBD)-128 (0x80)
Формат : AC-3
Формат/Информация : Audio Coding 3
Расширение режима : CM (complete main)
Параметр Endianness формата : Big
Режим смешивания : DVD-Video
Продолжительность : 22mn 59s
Вид битрейта : Constant
Битрейт : 192 Kbps
Каналы : 2 channels
Расположение каналов : Front: L R
Частота : 48.0 KHz
Битовая глубина : 16 bits
Метод сжатия : Lossy
Размер потока : 31.6 MiB (3%)

Menu


Торрент:  Добавлен [09 мар 2016, 23:52]

Скачать торрент Магнет ссылка
Скачать торрент

Кем проверен:  
Размер:  6.09 ГБ
Скачали:  142
Здоровье: 83%
Приватный:  Нет (DHT включён)
Наш партнёр



Вернуться к началу
 Профиль  
 
Начать новую тему Ответить на тему  [ 1 сообщение ] 
   Похожие торренты   Автор   Торрент   Размер 
В этой теме нет новых непрочитанных сообщений. Rainbow - Live at Monsters of Rock at Castle Donnington [1980, Hard Rock, Live Concert, DVDRip]

lana-mini

12 | 3

513.96 МБ

В этой теме нет новых непрочитанных сообщений. Peter Gabriel - Secret World Live [1994, Art Rock, Prog Rock, DVD9]

lana-mini

0 | 3

7.55 ГБ

В этой теме нет новых непрочитанных сообщений. The Rolling Stones - From The Vault Live in Leeds [1982, Rock, DVD9]

lana-mini

7 | 10

6.89 ГБ

В этой теме нет новых непрочитанных сообщений. The Answer - 412 Days Of Rock N Roll [2011, Hard Rock, DVD9] / Клипографии

lana-mini

17 | 6

7.09 ГБ

В этой теме нет новых непрочитанных сообщений. Black Stone Cherry - Thank You Livin’ Live [2014, Rock, Hard Rock, Southern Rock, BD-Remux 1080i]

lana-mini

0 | 6

21.25 ГБ




Вы не можете начинать темы
Вы не можете отвечать на сообщения
Вы не можете редактировать свои сообщения
Вы не можете удалять свои сообщения
Вы не можете добавлять вложения

Перейти:  
cron