Начать новую тему Ответить на тему
Статистика раздачи
Размер: 1 ГБ | Добавлен: 27 май 2014, 07:00
Сидеров: 1    Личеров: 2
Автор Сообщение

СообщениеДобавлено: 27 май 2014, 08:32 

Не в сети
Раздал: 23.79 ГБ
Скачал: 34 МБ
Ратио: 716.423
Спасибо: 1 / 0
Сообщения: 4
Зарегистрирован: 27 май 2014, 06:32
Столетний старик, который вылез в окно и исчез / Hundraåringen som klev ut genom fönstret och försvann

Страна: Швеция
Жанр: комедия
Год выпуска: 2013
Продолжительность: 01:49:27

Перевод: Одноголосый закадровый Бросалин С.
Cубтитры: нет
Режиссер: Феликс Хернгрен / Felix Herngren

В ролях: Роберт Густафссон, Ивар Викландер, Давид Виберг, Мия Шерингер, Йенс Хультен, Бьянка Крусейро, Алан Форд, Свен Лённ, Георг Николофф, Кори Петерсон, Юхан Реборг

Описание: В день празднования своего столетия юбиляр вылезает через окно дома престарелых на газон и уходит. Уходит не куда-то, а от чего-то. От бессмысленного доживания в богадельне. В первый же час он ухитряется поссориться с бандитами и уехать в неизвестном направлении. Вскоре становится понятно, что все сто лет его жизни — сплошные приключения. Он, вроде бы, всегда плывет по течению, но почему-то всегда приплывает к любимым занятиям — застольям и разного рода взрывам. Перезнакомившись, при разных юмористических обстоятельствах, с большинством сильных своего времени — Франко, Труменом, Сталиным — и изрядно повлияв на историю двадцатого века, он остается самим собой

Сэмпл: http://multi-up.com/976394

Качество видео: DVDRip
Формат видео: MKV

Видео: AVC, 720x304, 1027 Кбит/с, 29 fps, 0.157 bit/pixel
Аудио: AC3, 2 ch, 48,0 КГц, 256 Кбит/с
Общее
Уникальный идентификатор : 174678787873283412156607081548665683527 (0x8369E92B9812F48990864442E7597E47)
Полное имя : C:\Users\Nisorb\Desktop\раздача\столетний старик, который вышел в окно и исчез (озвучено русский язык Бросалин С.).mkv
Формат : Matroska
Версия формата : Version 4 / Version 2
Размер файла : 1,00 Гбайт
Продолжительность : 1 ч. 49 м.
Режим общего битрейта : Переменный
Общий поток : 1309 Кбит/сек
Название фильма : ёЄрЁшъ, ъюЄюЁ√щ т√°хы т юъэю ш шёўхч
Дата кодирования : UTC 2014-05-27 02:12:39
Программа кодирования : mkvmerge v6.6.0 ('The Edge Of The In Between') built on Dec 1 2013 17:55:00
Библиотека кодирования : libebml v1.3.0 + libmatroska v1.4.1

Видео
Идентификатор : 1
Формат : AVC
Формат/Информация : Advanced Video Codec
Профиль формата : Baseline@L5.0
Параметр CABAC формата : Нет
Параметр ReFrames формата : 1 кадр
Идентификатор кодека : V_MPEG4/ISO/AVC
Продолжительность : 1 ч. 49 м.
Вид битрейта : Переменный
Битрейт : 1027 Кбит/сек
Максимальный битрейт : 169 Мбит/сек
Ширина : 720 пикселей
Высота : 304 пикселя
Соотношение сторон : 2,35:1
Режим частоты кадров : Постоянный
Частота кадров : 29,970 кадров/сек
Цветовое пространство : YUV
Субдискретизация насыщенности : 4:2:0
Битовая глубина : 8 бит
Тип развёртки : Прогрессивная
Бит/(Пиксели*Кадры) : 0.157
Размер потока : 804 Мбайт (78%)
Библиотека кодирования : x264 core 135 r2345 f0c1c53
Настройки программы : cabac=0 / ref=1 / deblock=0:0:0 / analyse=0:0 / me=dia / subme=0 / psy=1 / psy_rd=1.00:0.00 / mixed_ref=0 / me_range=16 / chroma_me=1 / trellis=0 / 8x8dct=0 / cqm=0 / deadzone=21,11 / fast_pskip=1 / chroma_qp_offset=0 / threads=12 / lookahead_threads=2 / sliced_threads=0 / nr=0 / decimate=1 / interlaced=0 / bluray_compat=0 / constrained_intra=0 / bframes=0 / weightp=0 / keyint=300 / keyint_min=30 / scenecut=0 / intra_refresh=0 / rc_lookahead=0 / rc=crf / mbtree=0 / crf=24.0 / qcomp=0.60 / qpmin=0 / qpmax=69 / qpstep=4 / vbv_maxrate=168750 / vbv_bufsize=168750 / crf_max=0.0 / nal_hrd=vbr / ip_ratio=1.40 / aq=0
Default : Да
Forced : Нет

Аудио
Идентификатор : 2
Формат : AC-3
Формат/Информация : Audio Coding 3
Расширение режима : CM (complete main)
Параметр Endianness формата : Big
Идентификатор кодека : A_AC3
Продолжительность : 1 ч. 49 м.
Вид битрейта : Постоянный
Битрейт : 256 Кбит/сек
Каналы : 2 канала
Расположение каналов : Front: L R
Частота : 48,0 КГц
Битовая глубина : 16 бит
Метод сжатия : С потерями
Размер потока : 200 Мбайт (20%)
Default : Да
Forced : Нет











Торрент:  Добавлен [27 май 2014, 07:00]

Скачать торрент Магнет ссылка
Скачать торрент

Кем проверен:  by ДжОкЕр (27 май 2014, 15:38)
Размер:  1 ГБ
Скачали:  4
Здоровье: 50%
Приватный:  Нет (DHT включён)
Наш партнёр



Последний раз редактировалось nisorb 27 май 2014, 18:05, всего редактировалось 1 раз.

Вернуться к началу
 Профиль  
 

СообщениеДобавлено: 27 май 2014, 10:43 

Не в сети
Администратор
Аватара пользователя
Раздал: 6.92 ТБ
Скачал: 1.85 ТБ
Ратио: 3.740
Спасибо: 14030 / 0
Сообщения: 14739
Зарегистрирован: 08 дек 2013, 12:49
Название-Название фильма [жанр, год] качество, перевод
минимум 3 скрина
и выделяй
Код:
[b][/b]
год и т.д.


Вернуться к началу
 Профиль  
 

СообщениеДобавлено: 27 май 2014, 18:07 

Не в сети
Раздал: 23.79 ГБ
Скачал: 34 МБ
Ратио: 716.423
Спасибо: 1 / 0
Сообщения: 4
Зарегистрирован: 27 май 2014, 06:32
Цитата:
Название-Название фильма [жанр, год] качество, перевод
минимум 3 скрина
и выделяй

Сделано


Вернуться к началу
 Профиль  
 

СообщениеДобавлено: 27 май 2014, 20:06 

Не в сети
Администратор
Аватара пользователя
Раздал: 6.92 ТБ
Скачал: 1.85 ТБ
Ратио: 3.740
Спасибо: 14030 / 0
Сообщения: 14739
Зарегистрирован: 08 дек 2013, 12:49
nisorb писал(а):
Цитата:
Название-Название фильма [жанр, год] качество, перевод
минимум 3 скрина
и выделяй

Сделано

Название-Название фильма [жанр, год] качество, перевод


Вернуться к началу
 Профиль  
 

СообщениеДобавлено: 27 май 2014, 20:22 

Не в сети
Раздал: 23.79 ГБ
Скачал: 34 МБ
Ратио: 716.423
Спасибо: 1 / 0
Сообщения: 4
Зарегистрирован: 27 май 2014, 06:32
Смотрю ты уже выложил другие раздачи с моей озвучкой. Я сам озвучиваю фильмы, это мой голос. Думаю, давай я тебе в следующий раз отправлю дорогу с русской озвучкой отдельно, ты сам прикрутишь звук к видео и выложишь раздачу, мне самому так проще и легче. Только вот данных для связи у меня с тобой нет, напиши контакты в ЛС или еще как. Вот мои контакты http://vk.com/brosalin_semen или почта nisorb@mail.ru.


Вернуться к началу
 Профиль  
 

СообщениеДобавлено: 27 май 2014, 20:36 

Не в сети
Администратор
Аватара пользователя
Раздал: 6.92 ТБ
Скачал: 1.85 ТБ
Ратио: 3.740
Спасибо: 14030 / 0
Сообщения: 14739
Зарегистрирован: 08 дек 2013, 12:49
nisorb писал(а):
Смотрю ты уже выложил другие раздачи с моей озвучкой. Я сам озвучиваю фильмы, это мой голос. Думаю, давай я тебе в следующий раз отправлю дорогу с русской озвучкой отдельно, ты сам прикрутишь звук к видео и выложишь раздачу, мне самому так проще и легче. Только вот данных для связи у меня с тобой нет, напиши контакты в ЛС или еще как. Вот мои контакты http://vk.com/brosalin_semen или почта nisorb@mail.ru.

Да...только вот, было бы у меня это видео...я любителей не очень :ne_ne_ne: потому и не качаю...


Вернуться к началу
 Профиль  
 

СообщениеДобавлено: 27 май 2014, 20:43 

Не в сети
Раздал: 23.79 ГБ
Скачал: 34 МБ
Ратио: 716.423
Спасибо: 1 / 0
Сообщения: 4
Зарегистрирован: 27 май 2014, 06:32
хорошо, договорились.


Вернуться к началу
 Профиль  
 
Начать новую тему Ответить на тему  [ Сообщений: 7 ] 
   Похожие торренты   Автор   Торрент   Размер 
В этой теме нет новых непрочитанных сообщений. Сто однолетний старик, который не заплатил и исчез / Hundraettaringen som smet fran notan och forsvann [комедия, криминал, приключения, 2016] HDRip, Avo

jons3

1349 | 82

1.37 ГБ

В этой теме нет новых непрочитанных сообщений. Fedor Chudinov vs Felix Sturm II / Фёдор Чудинов - Феликс Штурм 2 [Бокс, 20.02.2016, Sat 1 HD, HDTV (1080р)] / Бокс

lana-mini

1 | 2

4.13 ГБ

В этой теме нет новых непрочитанных сообщений. Fedor Chudinov vs. Felix Sturm II / Фёдор Чудинов - Феликс Штурм 2 [Бокс, 20.02.2016, Первый Канал HD, WEB-DL (1080р)] / Бокс

lana-mini

6 | 3

2.2 ГБ

В этой теме нет новых непрочитанных сообщений. Fedor Chudinov vs. Felix Sturm II & Undercard / Фёдор Чудинов - Феликс Штурм 2 + Андеркарт [Бокс, 20.02.2016, BoxNation HD, HDTVRip] / Бокс

lana-mini

3 | 2

1.5 ГБ

В этой теме нет новых непрочитанных сообщений. Старик и ребенок / Le vieil homme et l'enfant [драма, комедия, 1967] HDRip, avo

jons3

0 | 1

1.45 ГБ




Вы не можете начинать темы
Вы не можете отвечать на сообщения
Вы не можете редактировать свои сообщения
Вы не можете удалять свои сообщения
Вы не можете добавлять вложения

Перейти:  
cron