Начать новую тему Ответить на тему
Статистика раздачи
Размер: 310.73 МБ | Добавлен: 02 апр 2016, 00:04
Сидеров: 13    Личеров: 3
Автор Сообщение

СообщениеДобавлено: 02 апр 2016, 00:04 

Не в сети
Раздал: 12.95 ГБ
Скачал: 16.21 ГБ
Ратио: 0.799
Спасибо: 9368 / 0
Сообщения: 13963
Зарегистрирован: 28 янв 2016, 22:36
Теория заговора. Эрдоган. История турецкого фюрера


Перевод: Не требуется, cубтитры: отсутствуют
Формат: DVB, MPEG-TS, H.264, MP2
Страна: Россия
Режиссер: ОАО «ТРК ВС РФ <ЗВЕЗДА>
Жанр: документальный
Продолжительность: 00:17:44
Год выпуска: 2016

Описание: Турецкий фюрер или завравшийся провокатор? Кто покрывает бизнес Эрдогана с террористами? В Турции его имя стало синонимом коррупции и безумства, а за ее пределами - синонимом подлости и предательства. Почему Запад допустил малограмотного нациста к власти? И почему на самом деле был сбит Су-24...

Видео: 768x576 (4:3), 25,000 fps, AVC (х264), Main@Main, 2196 Кбит/сек, ~ 0.217 bit/pixel
Аудио: 48 kHz, MPEG Layer 2, 2 ch, ~128.00 kbps avg

General
Полное имя : Теория заговора_ Эрдоган_ История турецкого фюрера.ts
Формат : MPEG-TS
Размер файла : 311 Мбайт
Продолжительность : 17 м.
Режим общего битрейта : Переменный
Общий поток : 2446 Кбит/сек

Видео
Идентификатор : 1104 (0x450)
Идентификатор меню : 104 (0x68)
Формат : MPEG Video
Версия формата : Version 2
Профиль формата : Main@Main
Параметр BVOP формата : Да
Параметр матрицы формата : Выборочная
Параметр GOP формата : Variable
Идентификатор кодека : 2
Продолжительность : 17 м.
Вид битрейта : Переменный
Битрейт : 2196 Кбит/сек
Максимальный битрейт : 15,0 Мбит/сек
Ширина : 768 пикселя
Высота : 576 пикселей
Соотношение сторон : 4:3
Частота кадров : 25,000 кадров/сек
Стандарт вещания : PAL
Цветовое пространство : YUV
Субдискретизация насыщенности : 4:2:0
Битовая глубина : 8 бит
Тип развёртки : Чересстрочная
Порядок развёртки : Верхнее поле первое
Метод сжатия : С потерями
Бит/(Пиксели*Кадры) : 0.217
Размер потока : 279 Мбайт (90%)

Аудио
Идентификатор : 2104 (0x838)
Идентификатор меню : 104 (0x68)
Формат : MPEG Audio
Версия формата : Version 1
Профиль формата : Layer 2
Идентификатор кодека : 4
Продолжительность : 17 м.
Вид битрейта : Постоянный
Битрейт : 128 Кбит/сек
Каналы : 2 канала
Частота : 48,0 КГц
Метод сжатия : С потерями
Задержка видео : 8 мс.
Размер потока : 16,2 Мбайт (5%)
Язык : std
Язык, дополнительно : Clean effects











Торрент:  Добавлен [02 апр 2016, 00:04]

Скачать торрент Магнет ссылка
Скачать торрент

Кем проверен:  
Размер:  310.73 МБ
Скачали:  228
Здоровье: 100%
Приватный:  Нет (DHT включён)
Наш партнёр



Вернуться к началу
 Профиль  
 
Начать новую тему Ответить на тему  [ 1 сообщение ] 
   Похожие торренты   Автор   Торрент   Размер 
В этой теме нет новых непрочитанных сообщений. Теория заговора. Сыр [Эфир от 12.03.2016] (Первый канал) [2016, документальный, SATRip]

lana-mini

29 | 7

643.64 МБ

В этой теме нет новых непрочитанных сообщений. Теория заговора. Рыба (Эфир от 21.02.2016) (Первый канал) [2016, документальный, SATRip]

lana-mini

36 | 4

643.93 МБ

В этой теме нет новых непрочитанных сообщений. Теория заговора. Прогресс — зло [13.11] (Документальный, познавательный, расследование, 2016) HDTV 1080i от GeneralFilm

marya111

9 | 8

2.22 ГБ

В этой теме нет новых непрочитанных сообщений. Теория заговора. Еда вместо антидепрессантов [06.11] (Документальный, познавательный, расследование, 2016) HDTV 1080i от GeneralFilm

marya111

10 | 1

2.22 ГБ

В этой теме нет новых непрочитанных сообщений. Теория заговора. Мясная нарезка (Эфир от 16.01.2016) (ТК "1 канал") [2015, документальный, SATRip]

lana-mini

2 | 2

645.07 МБ




Вы не можете начинать темы
Вы не можете отвечать на сообщения
Вы не можете редактировать свои сообщения
Вы не можете удалять свои сообщения
Вы не можете добавлять вложения

Перейти:  
cron