Начать новую тему Ответить на тему
Статистика раздачи
Размер: 5.52 ГБ | Добавлен: 09 фев 2016, 23:14
Сидеров: 2    Личеров: 2
Автор Сообщение

СообщениеДобавлено: 09 фев 2016, 23:14 

Не в сети
Раздал: 12.95 ГБ
Скачал: 16.21 ГБ
Ратио: 0.799
Спасибо: 9374 / 0
Сообщения: 13963
Зарегистрирован: 28 янв 2016, 22:36
Африка 3D [Вертикальная анаморфная стереопара] / Faszination Afrika 3D [Half OverUnder]

Перевод: Профессиональный (одноголосый)
Субтитры: отсутствуют
Формат: BDRip, MKV, H.264, AC3/DTS
Страна: Германия
Режиссер: Бенжамин Ичер, Тимо Дж. Мэйер
Жанр: документальный
Продолжительность: 00:55:35
Год выпуска: 2011

Описание: Африка — колыбель человечества, сердце нашей Земли. Черный континент, где солнечные лучи проникают в землю почти вертикально. Поразительной красоты пейзажи, уникальная и разнообразная фауна, которая отлично приспособилась к условиям жизни на континенте. Растения, которые невозможно встретить нигде больше на нашей планете. Все это разнообразие природы в естественной среде захватывает дух.

Отправляйтесь с нами к солнцу побродить по бесконечным саваннам и понаблюдать за слонами и жирафами на водопое. Вы будете просто поражены львами, зебрами, гиппопотамами и многими другими животными, населяющими континент.




Видео: 1920x1080p (16:9), 23.976 fps, AVC MPEG4(x264), ~11.8 Mbps avg, 0.237 bit/pixel
Аудио#1: Русский: 48 kHz, AC3 Dolby Digital, 6 ch, ~640 kbps avg [Профессиональный (одноголосый)]
Аудио#2: Русский: 48 kHz, DTS , 6 ch, ~755 kbps avg [Профессиональный (одноголосый)]
Аудио#3: Английский: 48 kHz, DTS , 6 ch, ~755 kbps avg

General
Unique ID : 235081767949404777507758636551222222276 (0xB0DB1A043F955A38BDE5E6C397E65DC4)
Complete name : C:\Documents and Settings\User\Мои документы\Африка 3D.2011.BDRip.1080p.HOU.3DRip.mkv
Format : Matroska
Format version : Version 2
File size : 5.52 GiB
Duration : 55mn 35s
Overall bit rate : 14.2 Mbps
Movie name : 3DRip для кинозал.ТВ
Encoded date : UTC 2012-11-18 13:45:17
Writing application : mkvmerge v3.4.0 ('Rapunzel') сборка от May 15 2010 09:38:20
Writing library : libebml v0.8.0 + libmatroska v0.9.0

Video
ID : 1
Format : AVC
Format/Info : Advanced Video Codec
Format profile :
Format settings, CABAC : Yes
Format settings, ReFrames : 4 frames
Codec ID : V_MPEG4/ISO/AVC
Duration : 55mn 35s
Bit rate : 11.8 Mbps
Width : 1 920 pixels
Height : 1 080 pixels
Display aspect ratio : 16:9
Frame rate : 23.976 fps
Color space : YUV
Chroma subsampling : 4:2:0
Bit depth : 8 bits
Scan type : Progressive
Bits/(Pixel*Frame) : 0.237
Stream size : 4.57 GiB (83%)
Title : 3DRip для кинозал.ТВ
Writing library : x264 core
Default : Yes
Forced : No
Color primaries : BT.709-5, BT.1361, IEC 61966-2-4, SMPTE RP177
Transfer characteristics : BT.709-5, BT.1361
Matrix coefficients : BT.709-5, BT.1361, IEC 61966-2-4 709, SMPTE RP177

Audio #1
ID : 2
Format : AC-3
Format/Info : Audio Coding 3
Mode extension : CM (complete main)
Format settings, Endianness : Big
Codec ID : A_AC3
Duration : 55mn 35s
Bit rate mode : Constant
Bit rate : 640 Kbps
Channel(s) : 6 channels
Channel positions : Front: L C R, Side: L R, LFE
Sampling rate : 48.0 KHz
Bit depth : 16 bits
Compression mode : Lossy
Stream size : 254 MiB (5%)
Title : 3DRip для кинозал.ТВ
Language : Russian
Default : Yes
Forced : No

Audio #2
ID : 3
Format : DTS
Format/Info : Digital Theater Systems
Codec ID : A_DTS
Duration : 55mn 35s
Bit rate mode : Constant
Bit rate : 755 Kbps
Channel(s) : 6 channels
Channel positions : Front: L C R, Side: L R, LFE
Sampling rate : 48.0 KHz
Bit depth : 24 bits
Compression mode : Lossy
Stream size : 300 MiB (5%)
Title : 3DRip для кинозал.ТВ
Language : Russian
Default : No
Forced : No

Audio #3
ID : 4
Format : DTS
Format/Info : Digital Theater Systems
Codec ID : A_DTS
Duration : 55mn 35s
Bit rate mode : Constant
Bit rate : 755 Kbps
Channel(s) : 6 channels
Channel positions : Front: L C R, Side: L R, LFE
Sampling rate : 48.0 KHz
Bit depth : 16 bits
Compression mode : Lossy
Stream size : 300 MiB (5%)
Title : 3DRip для кинозал.ТВ
Language : English
Default : No
Forced : No

Menu
00:00:00.000 : en:(01)00:00:00:000
00:04:07.747 : en:(02)00:04:07:747
00:16:17.434 : en:(03)00:16:17:434
00:18:02.498 : en:(04)00:18:02:498
00:27:45.830 : en:(05)00:27:45:830
00:31:06.155 : en:(06)00:31:06:155
00:43:37.948 : en:(07)00:43:37:948
00:48:52.804 : en:(08)00:48:52:804
00:55:35.540 : en:(09)00:55:35:540








Торрент:  Добавлен [09 фев 2016, 23:14]

Скачать торрент Магнет ссылка
Скачать торрент

Кем проверен:  
Размер:  5.52 ГБ
Скачали:  14
Здоровье: 100%
Приватный:  Нет (DHT включён)
Наш партнёр



Вернуться к началу
 Профиль  
 
Начать новую тему Ответить на тему  [ 1 сообщение ] 
   Похожие торренты   Автор   Торрент   Размер 
В этой теме нет новых непрочитанных сообщений. Удивительный океан 3D [Вертикальная анаморфная стереопара] / Amazing Ocean 3D [Half OverUnder] (Тимо Дж. Мэйер, Бенжамин Ичер) [2012, документальный, BDRip 3D 1080p] DUB / Фильмы в 3D (Blu-Ray

lana-mini

32 | 2

6.58 ГБ

В этой теме нет новых непрочитанных сообщений. Африка 3D / Faszination Afrika 3D (Бенжамин Ичер, Тимо Дж. Мэйер) [2011, документальный, LowHDRip] VO

jons3

0 | 3

702.94 МБ

В этой теме нет новых непрочитанных сообщений. Удивительная Африка 3D [Вертикальная анаморфная стереопара] / Amazing Africa 3D [Half OverUnder] [2013, документальный, BDRip 3D 1080p] DUB / Фильмы в 3D (Blu-Ray

lana-mini

13 | 2

9.36 ГБ

В этой теме нет новых непрочитанных сообщений. Спасатели 3D [Вертикальная анаморфная стереопара] / IMAX - Rescue 3D [Half OverUnder] (Стивен Лоу) [2011, документальный, BDRip 3D 1080p] DVO / Фильмы в 3D (Blu-Ray

lana-mini

4 | 2

4.53 ГБ

В этой теме нет новых непрочитанных сообщений. Хищники океанов 3D [Вертикальная анаморфная стереопара] / Ocean Predators 3D [Half OverUnder] [2013, документальный, BDRip 3D 1080p] DUB / Фильмы в 3D (Blu-Ray

lana-mini

40 | 7

7.8 ГБ




Вы не можете начинать темы
Вы не можете отвечать на сообщения
Вы не можете редактировать свои сообщения
Вы не можете удалять свои сообщения
Вы не можете добавлять вложения

Перейти:  
cron