Начать новую тему Ответить на тему
Статистика раздачи
Размер: 345.78 МБ | Добавлен: 06 апр 2012, 01:51
Сидеров: 13    Личеров: 10
Автор Сообщение

СообщениеДобавлено: 06 апр 2012, 01:51 

Не в сети
Администратор
Раздал: 169.85 ГБ
Скачал: 24.4 ГБ
Ратио: 6.961
Спасибо: 15360 / 10
Сообщения: 87557
Зарегистрирован: 11 янв 2012, 02:49
Век эгоизма. Часть 3 – В твоей голове сидит полицейский, которого нужно уничтожить / The Century of the Self. Part 3 - There is a Policeman Inside All Our Heads: He Must Be Destroyed

#77Перевод: Профессиональный (одноголосый), cубтитры: отсутствуют
Формат: TVRip, AVI, DivX, MP3
Страна: Великобритания
Режиссер: Адам Кёртис
Жанр: документальный
Продолжительность: 00:58:36
Год выпуска: 2002
В ролях: Вернер Эрхард, Мартин С. Бергманн, Тони Блэр, Билл Клинтон, Адам Кертис, Роберт Рич, Вильгельм Райх

Описание: Это сериал о том, как идеи Зигмунда Фрейда о бессознательном были использованы власть имущими для управления поведением масс в эпоху демократии.
Идеи Фрейда распространились по всей Америке в 50-х годах двадцатого века. Они распространялись благодаря усилиям дочери Фрейда Анны и его племянника Эдварда Бернейса. Он сделал теории Фрейда центральным стержнем рекламы и маркетинга. Оба они верили, что в основе каждого человеческого существа находится скрытое иррациональное начало, которое необходимо контролировать –как для блага самого человека, так и ради стабильности общества.
Но оппоненты, которые говорили, что фрейдисты неправы в своих представлениях о человеческой природе, были уже готовы отстранить наследников Фрейда от власти. Внутреннюю сущность человека не надо подавлять и контролировать, ее надо поощрять к самовыражению. Благодаря этому появится новый тип сильной личности и лучшее общество.
Но результаты этой революции оказались совершенно противоположными. Они привели к появлению замкнутых на себя, уязвимых и, прежде всего, жадных людей. Людей, подверженных манипуляциям со стороны бизнеса и политики в гораздо большей мере, чем когда-либо ранее.
Стоящие у власти теперь будут контролировать сознание людей, не подавляя их бессознательное начало, а потакая его бесконечным желаниям.

Смотрите также:
Библия 21 века DVD-Video №1 - Новый мировой порядок
Высшая Социология (Григорий Климов)
Князь Мира Сего - Григорий Климов
Психиатрия индустрия смерти


Видео: 640x480 (1.33:1), 29.970 fps, DivX Codec 6.8.5/6.9.1 ~749 kbps avg, 0.08 bit/pixel
Аудио: 48 kHz, MPEG Layer 3, 1 ch, ~64.00 kbps avg
Format : AVI
Format/Info : Audio Video Interleave
File size : 346 MiB
Duration : 58mn 36s
Overall bit rate : 825 Kbps
Writing application : VirtualDubMod 1.5.10.2 (build 2542/release)
Writing library : VirtualDubMod build 2542/release

Video
ID : 0
Format : MPEG-4 Visual
Format settings, BVOP : 3
Format settings, QPel : No
Format settings, GMC : No warppoints
Format settings, Matrix : Default (H.263)
Muxing mode : Packed bitstream
Codec ID : DX50
Codec ID/Hint : DivX 5
Duration : 58mn 36s
Bit rate : 749 Kbps
Width : 640 pixels
Height : 480 pixels
Display aspect ratio : 4:3
Frame rate : 29.970 fps
Color space : YUV
Chroma subsampling : 4:2:0
Bit depth : 8 bits
Scan type : Progressive
Compression mode : Lossy
Bits/(Pixel*Frame) : 0.081
Stream size : 314 MiB (91%)
Writing library : DivX 6.8.5 (UTC 2009-08-20)

Audio
ID : 1
Format : MPEG Audio
Format version : Version 1
Format profile : Layer 3
Codec ID : 55
Codec ID/Hint : MP3
Duration : 58mn 35s
Bit rate mode : Constant
Bit rate : 64.0 Kbps
Channel(s) : 1 channel
Sampling rate : 48.0 KHz
Compression mode : Lossy
Stream size : 26.8 MiB (8%)
Alignment : Split accross interleaves
Interleave, duration : 33 ms (1.00 video frame)
Interleave, preload duration : 500 ms









Поделиться:

Торрент:  Добавлен [06 апр 2012, 01:51]

Скачать торрент Магнет ссылка
Скачать торрент

Кем проверен:
 
Размер:  345.78 МБ
Скачали:  35
Здоровье: 100%
Приватный:  Нет (DHT включён)
Наш партнёр



Вернуться к началу
 Профиль  
 
Начать новую тему Ответить на тему  [ 1 сообщение ] 
   Похожие торренты   Автор   Торрент   Размер 
В этой теме нет новых непрочитанных сообщений. Восхождение пехотинца. Часть II / Rise of the Footsoldier Part II [криминал, 2015] BDRip, AVO

jons3

204 | 68

1.46 ГБ

В этой теме нет новых непрочитанных сообщений. Паразит: Часть 1 / Kiseijû: Part 1 (Такаси Ямадзаки) [Фантастика, ужасы, 2014] WEB-DLRip, dvo

ДжОкЕр

448 | 9

1.42 ГБ

В этой теме нет новых непрочитанных сообщений. Паразит: Часть 2 / Kiseijû: Part 2 (Такаси Ямадзаки) [Фантастика, ужасы, 2015] HDRip, dvo

ДжОкЕр

105 | 3

1.45 ГБ

В этой теме нет новых непрочитанных сообщений. Паразит: Часть 1 / Kiseijû: Part 1 (Такаси Ямадзаки) [Фантастика, ужасы, 2014] WEB-DL 1080p, dvo

ДжОкЕр

114 | 3

2.92 ГБ

В этой теме нет новых непрочитанных сообщений. Паразит: Часть 2 / Kiseijû: Part 2 (Такаси Ямадзаки) [Фантастика, ужасы, 2015] BDRip 720p, dvo

ДжОкЕр

213 | 10

4.49 ГБ




Вы не можете начинать темы
Вы не можете отвечать на сообщения
Вы не можете редактировать свои сообщения
Вы не можете удалять свои сообщения
Вы не можете добавлять вложения

Перейти:  
cron