Начать новую тему Ответить на тему
Статистика раздачи
Размер: 1.6 ГБ | Добавлен: 06 апр 2012, 01:51
Сидеров: 18    Личеров: 3
Автор Сообщение

СообщениеДобавлено: 06 апр 2012, 01:51 

Не в сети
Администратор
Раздал: 169.85 ГБ
Скачал: 24.4 ГБ
Ратио: 6.961
Спасибо: 15360 / 10
Сообщения: 87557
Зарегистрирован: 11 янв 2012, 02:49
Союз: Теневой бизнес удовольствия / The Union: The Business Behind Getting High

#77Перевод: Любительский (одноголосый), cубтитры: отсутствуют
Формат: DVDRip, AVI, DivX, MP3
Страна: Канада
Режиссер: Бретт Харви
Жанр: документальный
Продолжительность: 01:43:30
Год выпуска: 2007
В ролях: Крис Беннетт, Джордж Буш, Джордж У. Буш, Ларри Кэмпбелл, Риэлль Кэплер, Томми Чонг, Джек А. Коул, Джон Сонрой, Грег Купер, Стивен Истон
Описание:
Союз - так участники подпольного бизнеса по выращиванию и распространению марихуаны назвают свое сообщество.
В фильме рассмотрены: краткая история использования марихуаны, распространенные мифы связанные с марихуаной,
описаны основные цепочки подпольного бизнеса, поднимаются вопросы о целесообразности запретов на это растение,
поднимаются скрываемые от общественности факты использования марихуаны.
Создатели фильма обращают внимание на всё лицемерие существующих законов в отношении конопли.




Видео: 720х400 (16:9), 25 fps, DivX 4 ~2019 kbps avg, 0.28 bit/pixel
Аудио: 48 kHz, MPEG Layer 3, 2 ch, ~183 kbps avg


Общее
Полное имя : The.Union.The.Business.Behind.Getting.High.DVDRip.1600MB.avi
Формат : AVI
Формат/Информация : Audio Video Interleave
Профиль формата : OpenDML
Размер файла : 1,60 Гбайт
Продолжительность : 1 ч. 43 м.
Режим общего битрейта : Переменный
Общий поток : 2216 Кбит/сек
Программа кодирования : MEncoder r33883
Библиотека кодирования : MPlayer

Видео
Идентификатор : 0
Формат : MPEG-4 Visual
Профиль формата : Simple@L1
Параметр матрицы формата : Default
Идентификатор кодека : DIVX
Идентификатор кодека/Информация : Project Mayo
Идентификатор кодека/Подсказка : DivX 4
Продолжительность : 1 ч. 43 м.
Битрейт : 2019 Кбит/сек
Ширина : 720 пикселей
Высота : 400 пикселей
Соотношение сторон : 16:9
Частота кадров : 25,000 кадров/сек
Цветовое пространство : YUV
Субдискретизация насыщенности : 4:2:0
Битовая глубина : 8 бит
Тип развёртки : Прогрессивная
Метод сжатия : С потерями
Бит/(Пиксели*Кадры) : 0.28
Размер потока : 1,46 Гбайт (91%)
Библиотека кодирования : Lavc53.8.0

Аудио
Идентификатор : 1
Формат : MPEG Audio
Версия формата : Version 1
Профиль формата : Layer 3
Режим : Joint stereo
Расширение режима : MS Stereo
Идентификатор кодека : 55
Идентификатор кодека/Подсказка : MP3
Продолжительность : 1 ч. 43 м.
Вид битрейта : Переменный
Битрейт : 183 Кбит/сек
Каналы : 2 канала
Частота : 48,0 КГц
Метод сжатия : С потерями
Размер потока : 135 Мбайт (8%)
Выравнивание : Соединение по промежуткам
Продолжительность промежутка : 24 мс. (0,60 видеокадр)
Время предзагрузки промежутка : 88 мс.
Библиотека кодирования : LAME3.98.4






Поделиться:

Торрент:  Добавлен [06 апр 2012, 01:51]

Скачать торрент Магнет ссылка
Скачать торрент

Кем проверен:
 
Размер:  1.6 ГБ
Скачали:  175
Здоровье: 100%
Приватный:  Нет (DHT включён)
Наш партнёр



Вернуться к началу
 Профиль  
 
Начать новую тему Ответить на тему  [ 1 сообщение ] 
   Похожие торренты   Автор   Торрент   Размер 
В этой теме нет новых непрочитанных сообщений. Только бизнес / Strictly Business [Мелодрама, комедия, 1991] DVDRip, Avo

jons3

32 | 25

1.37 ГБ

В этой теме нет новых непрочитанных сообщений. Большой бизнес / Big Business [Комедия, Приключения, 1988] HDRip, Avo

jons3

27 | 5

1.46 ГБ

В этой теме нет новых непрочитанных сообщений. Семейный бизнес / Family Business [комедия, 1989] HDRip, Dvo

jons3

0 | 0

1.45 ГБ

В этой теме нет новых непрочитанных сообщений. Шоу-бизнес / Show Business [драма, мелодрама, комедия, 2016] WEB-DLRip, Mvo

jons3

121 | 15

1.37 ГБ

В этой теме нет новых непрочитанных сообщений. Семейный бизнес / Family Business [криминал, драма, 1989] WEB-DL 1080p, Mvo

jons3

0 | 0

13.18 ГБ




Вы не можете начинать темы
Вы не можете отвечать на сообщения
Вы не можете редактировать свои сообщения
Вы не можете удалять свои сообщения
Вы не можете добавлять вложения

Перейти:  
cron