Начать новую тему Ответить на тему
Статистика раздачи
Размер: 4.25 ГБ | Добавлен: 10 июл 2017, 14:53
Сидеров: 649    Личеров: 210
Автор Сообщение

СообщениеДобавлено: 10 июл 2017, 14:53 

Не в сети
Администратор
Аватара пользователя
Раздал: 10.12 ГБ
Скачал: 5.39 ГБ
Ратио: 1.877
Спасибо: 8465 / 58
Сообщения: 29351
Зарегистрирован: 31 дек 2013, 23:53
Год выпуска: 2017
Жанр: Мультфильм, приключения, комедия
Режиссер: Том МакГрат

В ролях: Майлз Кристофер Бакши, Алек Болдуин, Эрик Белл мл., Стив Бушеми, Джимми Киммел, Лиза Кудроу, Тоби Магуайр, ВивиЭнн Йи

О фильме:
Эта актуальная во все времена история для взрослых и детей рассказывается от лица семилетнего брата новорожденного — фантазера Тима, который ревнует его к родителям. Но главный герой — совсем не простой ребенок, он обладает лидерскими задатками, уже носит деловые костюмы и во всем видит бизнес-задачу.



Страна: США
Студия: DreamWorks Animation
Продолжительность: 01:37:30
Перевод: Дублированный | iTunes

Файл
Качество: BDRip 720p
Видео: MPEG-4 AVC, 1280x544, 4349 Kbit/s, 23.976 fps
Аудио #01: 48 kHz, AC3, 5.1, 384 Kbps | Дублированный | iTunes | RUS |
Аудио #02: 48 kHz, DTS, 5.1, 1510 Kbps | Оригинал | ENG |
Субтитры: Русские (forced, full), английские

General
Unique ID : 184676383648111949911908076140077306826 (0x8AEF60B2D76B2FB990339AD4F14CD3CA)
Complete name : C:UsersbattiDesktopThe.Boss.Baby.2017.WEB-DL.720p.ExKinoRay.mkv
Format : Matroska
Format version : Version 4 / Version 2
File size : 3.25 GiB
Duration : 1 h 37 min
Overall bit rate : 4 759 kb/s
Encoded date : UTC 2017-05-18 20:00:12
Writing application : mkvmerge v11.0.0 ('Alive') 64bit
Writing library : libebml v1.3.4 + libmatroska v1.4.5

Video
ID : 1
Format : AVC
Format/Info : Advanced Video Codec
Format profile : [email protected]
Format settings, CABAC : No
Format settings, ReFrames : 2 frames
Codec ID : V_MPEG4/ISO/AVC
Duration : 1 h 37 min
Bit rate : 3 992 kb/s
Width : 1 280 pixels
Height : 542 pixels
Display aspect ratio : 2.35:1
Frame rate mode : Constant
Frame rate : 23.976 FPS
Color space : YUV
Chroma subsampling : 4:2:0
Bit depth : 8 bits
Scan type : Progressive
Bits/(Pixel*Frame) : 0.240
Stream size : 2.73 GiB (84%)
Language : English
Default : Yes
Forced : No
Color range : Limited
Color primaries : BT.709
Transfer characteristics : BT.709
Matrix coefficients : BT.709

Audio #1
ID : 2
Format : AC-3
Format/Info : Audio Coding 3
Format settings, Endianness : Big
Codec ID : A_AC3
Duration : 1 h 37 min
Bit rate mode : Constant
Bit rate : 384 kb/s
Channel(s) : 6 channels
Channel positions : Front: L C R, Side: L R, LFE
Sampling rate : 48.0 kHz
Frame rate : 31.250 FPS (1536 spf)
Bit depth : 16 bits
Compression mode : Lossy
Stream size : 268 MiB (8%)
Title : iTunes
Language : Russian
Service kind : Complete Main
Default : Yes
Forced : No

Audio #2
ID : 3
Format : AC-3
Format/Info : Audio Coding 3
Format settings, Endianness : Big
Codec ID : A_AC3
Duration : 1 h 37 min
Bit rate mode : Constant
Bit rate : 384 kb/s
Channel(s) : 6 channels
Channel positions : Front: L C R, Side: L R, LFE
Sampling rate : 48.0 kHz
Frame rate : 31.250 FPS (1536 spf)
Bit depth : 16 bits
Compression mode : Lossy
Stream size : 268 MiB (8%)
Title : Original
Language : English
Service kind : Complete Main
Default : No
Forced : No

Menu
00:00:00.000 : en:1
00:03:44.891 : en:2
00:08:57.286 : en:3
00:11:44.911 : en:4
00:14:58.562 : en:5
00:19:37.215 : en:6
00:22:51.784 : en:7
00:28:26.243 : en:8
00:30:25.111 : en:9
00:33:44.477 : en:10
00:36:56.252 : en:11
00:39:17.351 : en:12
00:42:34.339 : en:13
00:46:19.605 : en:14
00:51:36.713 : en:15
00:53:24.278 : en:16
00:56:27.711 : en:17
00:59:34.397 : en:18
01:04:02.164 : en:19
01:08:14.749 : en:20
01:11:28.901 : en:21
01:16:24.238 : en:22
01:23:09.101 : en:23
01:27:35.951 : en:24


Релиз от: Автор релиза:

Торрент:  Добавлен [10 июл 2017, 14:53]

Скачать торрент Магнет ссылка
Скачать торрент

Кем проверен:
 by jons3 (10 июл 2017, 14:53)
Размер:  4.25 ГБ
Скачали:  1073
Здоровье: 100%
Приватный:  Нет (DHT включён)
Наш партнёр


_________________
Проголосуй за трекер RuTracker - Лучший торрент трекер


Вернуться к началу
 Профиль  
 
Начать новую тему Ответить на тему  [ 1 сообщение ] 
   Похожие торренты   Автор   Торрент   Размер 
В этой теме нет новых непрочитанных сообщений. Босс-молокосос / The Boss Baby [Мультфильм, приключения, комедия, 2017] WEB-DL 720p, Dub [iTunes]

jons3

2462 | 248

3.25 ГБ

В этой теме нет новых непрочитанных сообщений. Босс-молокосос / The Boss Baby [Мультфильм, приключения, комедия, 2017] BDRip 1080p, Dub [iTunes]

jons3

1136 | 256

6.98 ГБ

В этой теме нет новых непрочитанных сообщений. Босс-молокосос / The Boss Baby [Мультфильм, приключения, комедия, 2017] BDRip 720p, Dub [Лицензия]

jons3

220 | 64

5.78 ГБ

В этой теме нет новых непрочитанных сообщений. Босс-молокосос / The Boss Baby [Мультфильм, приключения, комедия, 2017] WEB-DLRip-AVC, Dub [iTunes]

jons3

2616 | 232

1.85 ГБ

В этой теме нет новых непрочитанных сообщений. Босс-молокосос / The Boss Baby [Мультфильм, приключения, комедия, 2017] WEB-DL 1080p, Dub [iTunes]

jons3

5624 | 801

3.6 ГБ




Вы не можете начинать темы
Вы не можете отвечать на сообщения
Вы не можете редактировать свои сообщения
Вы не можете удалять свои сообщения
Вы не можете добавлять вложения

Перейти: