Начать новую тему Ответить на тему
Статистика раздачи
Размер: 699.77 МБ | Добавлен: 09 фев 2016, 22:44
Сидеров: 2    Личеров: 2
Автор Сообщение

СообщениеДобавлено: 09 фев 2016, 22:44 

Не в сети
Раздал: 12.95 ГБ
Скачал: 16.21 ГБ
Ратио: 0.799
Спасибо: 9374 / 0
Сообщения: 13963
Зарегистрирован: 28 янв 2016, 22:36
Руины / Burgruinen

Перевод: Не требуется (музыкальное сопровождение), cубтитры: отсутствуют
Формат: BDRip, MKV, H.264, AC3
Страна: Германия, Zenith Pictures
Режиссер: Александр Р. Вулф
Жанр: документальный, релакс, видовой
Продолжительность: 00:35:26
Год выпуска: 2012

Описание:
Эти исторические руины замков Германии возвышаются в великолепной южной части Германии, и всего в 30 км от них находится пограничное Боденское озеро (Lake Constance). На берегах этого озера находятся Швейцария (Switzerland), Австрия (Austria) и Германия (Germany). Руины простираются на вулканическом плато, на территории порядка 22 акров, откуда открывается завораживающий вид на весь район.


Видео: 1024X576 (16:9), 23.976 fps, AVC MPEG-4, ~2565 kbps avg, 0.181 bit/pixel
Аудио: 48.0 KHz, AC-3, 2 ch, ~192.00 kbps avg

Complete name : D:\Мои Раздачи 04.2013\Ruini.2012.x264.[rutracker.in].mkv
Format : Matroska
Format version : Version 1
File size : 700 MiB
Duration : 35mn 26s
Overall bit rate : 2 761 Kbps
Encoded date : UTC 2013-03-27 18:02:50
Writing application : mkvmerge v2.1.0 ('Another Place To Fall') built on Aug 19 2007 13:40:07
Writing library : libebml v0.7.7 + libmatroska v0.8.1

Video #1
ID : 1
Format : AVC
Format/Info : Advanced Video Codec
Format profile :
Format settings, CABAC : Yes
Format settings, ReFrames : 8 frames
Codec ID : V_MPEG4/ISO/AVC
Duration : 35mn 26s
Bit rate : 2 565 Kbps
Width : 1 024 pixels
Height : 576 pixels
Display aspect ratio : 16:9
Frame rate : 23.976 fps
Color space : YUV
Chroma subsampling : 4:2:0
Bit depth : 8 bits
Scan type : Progressive
Bits/(Pixel*Frame) : 0.181
Stream size : 637 MiB (91%)
Title : Руины
Writing library : x264 core 130 r2273 b3065e6
Encoding settings : cabac=1 / ref=8 / deblock=1:-2:-2 / analyse=0x3:0x133 / me=umh / subme=10 / psy=1 / psy_rd=1.00:0.10 / mixed_ref=1 / me_range=32 / chroma_me=1 / trellis=2 / 8x8dct=1 / cqm=0 / deadzone=21,11 / fast_pskip=0 / chroma_qp_offset=-3 / threads=6 / lookahead_threads=1 / sliced_threads=0 / nr=0 / decimate=1 / interlaced=0 / bluray_compat=0 / constrained_intra=0 / bframes=8 / b_pyramid=2 / b_adapt=2 / b_bias=0 / direct=3 / weightb=1 / open_gop=0 / weightp=2 / keyint=240 / keyint_min=22 / scenecut=40 / intra_refresh=0 / rc_lookahead=40 / rc=2pass / mbtree=1 / bitrate=2565 / ratetol=1.0 / qcomp=0.60 / qpmin=10 / qpmax=51 / qpstep=4 / cplxblur=20.0 / qblur=0.5 / ip_ratio=1.40 / aq=1:1.00
Default : Yes
Forced : No

Audio #2
ID : 2
Format : AC-3
Format/Info : Audio Coding 3
Mode extension : CM (complete main)
Codec ID : A_AC3
Duration : 35mn 26s
Bit rate mode : Constant
Bit rate : 192 Kbps
Channel(s) : 2 channels
Channel positions : Front: L R
Sampling rate : 48.0 KHz
Bit depth : 16 bits
Compression mode : Lossy
Stream size : 48.7 MiB (7%)
Title : Instrumental
Default : No
Forced : No







Торрент:  Добавлен [09 фев 2016, 22:44]

Скачать торрент Магнет ссылка
Скачать торрент

Кем проверен:  
Размер:  699.77 МБ
Скачали:  0
Здоровье: 100%
Приватный:  Нет (DHT включён)
Наш партнёр



Вернуться к началу
 Профиль  
 
Начать новую тему Ответить на тему  [ 1 сообщение ] 
   Похожие торренты   Автор   Торрент   Размер 
В этой теме нет новых непрочитанных сообщений. Глазами пилота - Воздушный релакс / Pilotseye - Airlounge (Томас Айгнер) [2014, видовой, релакс, BDRip]

lana-mini

8 | 2

1.21 ГБ

В этой теме нет новых непрочитанных сообщений. Отзвуки Творения / Echoes of Creation (Ян Никман) [2010, документальный, видовой, релакс, BDRip]

lana-mini

1 | 2

1.54 ГБ

В этой теме нет новых непрочитанных сообщений. Магия гор 3D / Magie der Bergwelt 3D (Мартон Преч) [2011, документальный, видовой, релакс, BDRip 1080p] / Фильмы в 3D (Blu-Ray

lana-mini

5 | 3

4.29 ГБ

В этой теме нет новых непрочитанных сообщений. Живые пейзажи (16 серий) / Living Landscapes (Майкл Хьюман) [2007-2009, документальный, видовой, релакс, BDRip]

lana-mini

16 | 5

17.78 ГБ

В этой теме нет новых непрочитанных сообщений. Майорка (Мальорка) / Mallorca (Александр Р. Вульф) [2012, документальный, видовой, BDRip 720р]

lana-mini

2 | 3

3.66 ГБ




Вы не можете начинать темы
Вы не можете отвечать на сообщения
Вы не можете редактировать свои сообщения
Вы не можете удалять свои сообщения
Вы не можете добавлять вложения

Перейти:  
cron