Начать новую тему Ответить на тему
Статистика раздачи
Размер: 1.37 ГБ | Добавлен: 09 фев 2016, 22:44
Сидеров: 15    Личеров: 2
Автор Сообщение

СообщениеДобавлено: 09 фев 2016, 22:44 

Не в сети
Раздал: 12.95 ГБ
Скачал: 16.21 ГБ
Ратио: 0.799
Спасибо: 9374 / 0
Сообщения: 13963
Зарегистрирован: 28 янв 2016, 22:36
Дельфины в глубоком голубом океане 3D / Dolphins in the Deep Blue Ocean 3D

Перевод: Не требуется (музыкальное сопровождение), cубтитры: отсутствуют
Формат: HDRip-AVC, MKV, H.264, AC3
Страна: Германия
Режиссер: Бритта Леимбач
Жанр: документальный, релакс
Продолжительность: 01:00:16
Год выпуска: 2009

Описание: Они - вдохновляющие, играющие, сильные, захватывающие и высоко-умные животные: Дельфины. В этом видео вы можете увидеть, как эти прекрасные животные резвятся в естественной для них среде, в рифе Эйлат в Израиле. Наблюдайте, как дельфины танцуют и играют с камерой. Вы никогда еще не видели дельфинов в такой близости!

Видео: 1024x576 (16:9), 24,000fps, AVC (x264) , ~2800kbps avg, 0.198bit/pixel
Аудио: 48.0 kHz, AC3, (Front: L C R, Side: L R, LFE) , 6 ch ~448 Kbps avg

Общее
Уникальный идентификатор : 183304884813613704254961266528227071601 (0x89E73C95D91729FFB8B294D917AA9671)
Полное имя : D:\Delfini.v.glubokom.golubom.okeane.2009.x264.HDRip.(AVC).ExKinoRay.mkv
Формат : Matroska
Версия формата : Version 2
Размер файла : 1,37 Гбайт
Продолжительность : 1 ч. 0 м.
Общий поток : 3251 Кбит/сек
Название фильма : Delfini.v.glubokom.golubom.okeane.2009.x264.HDRip.(AVC).ExKinoRay (Enigma-Vladislav71
Дата кодирования : UTC 2012-02-07 18:31:06
Программа кодирования : mkvmerge v4.0.0 ('The Stars were mine') сборка от Jun 6 2010 16:18:42
Библиотека кодирования : libebml v1.0.0 + libmatroska v1.0.0

Видео
Идентификатор : 1
Формат : AVC
Формат/Информация : Advanced Video Codec
Профиль формата :
Параметр CABAC формата : Да
Параметр ReFrames формата : 8 кадров
Идентификатор кодека : V_MPEG4/ISO/AVC
Продолжительность : 1 ч. 0 м.
Битрейт : 2800 Кбит/сек
Ширина : 1024 пикс.
Высота : 576 пикс.
Соотношение сторон : 16:9
Частота кадров : 24,000 кадр/сек
Цветовое пространство : YUV
Подвыборка цветности : 4:2:0
Битовая глубина : 8 бит
Тип развёртки : Прогрессивная
Бит/(Пиксели*Кадры) : 0.198
Размер потока : 1,15 Гбайт (84%)
Библиотека кодирования : x264 core 116 r2074 2641b9e
Настройки программы : cabac=1 / ref=8 / deblock=1:-2:-2 / analyse=0x3:0x133 / me=umh / subme=11 / psy=1 / psy_rd=1.00:0.00 / mixed_ref=1 / me_range=48 / chroma_me=1 / trellis=2 / 8x8dct=1 / cqm=0 / deadzone=21,11 / fast_pskip=0 / chroma_qp_offset=-2 / threads=3 / sliced_threads=0 / nr=0 / decimate=1 / interlaced=0 / bluray_compat=0 / constrained_intra=0 / bframes=8 / b_pyramid=2 / b_adapt=2 / b_bias=0 / direct=3 / weightb=1 / open_gop=0 / weightp=2 / keyint=250 / keyint_min=23 / scenecut=40 / intra_refresh=0 / rc=2pass / mbtree=0 / bitrate=2800 / ratetol=1.0 / qcomp=0.60 / qpmin=10 / qpmax=51 / qpstep=4 / cplxblur=20.0 / qblur=0.5 / ip_ratio=1.40 / pb_ratio=1.30 / aq=2:1.00
Язык : English

Аудио
Идентификатор : 2
Формат : AC-3
Формат/Информация : Audio Coding 3
Расширение режима : CM (complete main)
Идентификатор кодека : A_AC3
Продолжительность : 1 ч. 0 м.
Вид битрейта : Постоянный
Битрейт : 448 Кбит/сек
Каналы : 6 каналов
Расположение каналов : Front: L C R, Side: L R, LFE
Частота : 48,0 КГц
Битовая глубина : 16 бит
Метод сжатия : С потерями
Размер потока : 193 Мбайт (14%)
















Торрент:  Добавлен [09 фев 2016, 22:44]

Скачать торрент Магнет ссылка
Скачать торрент

Кем проверен:  
Размер:  1.37 ГБ
Скачали:  60
Здоровье: 100%
Приватный:  Нет (DHT включён)
Наш партнёр



Вернуться к началу
 Профиль  
 
Начать новую тему Ответить на тему  [ 1 сообщение ] 
   Похожие торренты   Автор   Торрент   Размер 
В этой теме нет новых непрочитанных сообщений. Мечта об Океане / Ocean HD Lounge [2010, путешествия и туризм, релакс, HDRip]

lana-mini

5 | 2

1.29 ГБ

В этой теме нет новых непрочитанных сообщений. Мечта об Океане / Ocean HD Lounge [2010, документальный, HDRip-AVC]

lana-mini

5 | 3

1.45 ГБ

В этой теме нет новых непрочитанных сообщений. Дельфины / Dolphins [Боевик, драма, мелодрама, 2007] DVDRip, Dvo

jons3

12 | 5

1.43 ГБ

В этой теме нет новых непрочитанных сообщений. Сакура / Yozakura [2009, документальный, релакс, HDRip]

lana-mini

1 | 2

1.09 ГБ

В этой теме нет новых непрочитанных сообщений. Леди в голубом / The Lady in Blue [комедия, 1996] DVDRip, Dvo

jons3

249 | 53

1.46 ГБ




Вы не можете начинать темы
Вы не можете отвечать на сообщения
Вы не можете редактировать свои сообщения
Вы не можете удалять свои сообщения
Вы не можете добавлять вложения

Перейти:  
cron