Начать новую тему Ответить на тему
Статистика раздачи
Размер: 2.29 ГБ | Добавлен: 02 апр 2012, 03:43
Сидеров: 8    Личеров: 4
Автор Сообщение

СообщениеДобавлено: 02 апр 2012, 03:43 

Не в сети
Аватара пользователя
Раздал: 1.23 ГБ
Скачал: 6.82 ГБ
Ратио: 0.180
Спасибо: 416 / 1
Сообщения: 1400
Откуда: Урюпинск
Зарегистрирован: 30 мар 2012, 01:48
Вселенная. Сезон 5. Тайны космических исследований / Secrets of The Space Probes

#77
Перевод: Любительский (одноголосый), cубтитры: отсутствуют
Формат: BDRip, MKV, H.264, AC3
Страна: CША
Режиссер: Лаура Верклан, Тони Лонг, Колин Кэмпбелл
Жанр: документальный
Продолжительность: 00:43:47
Год выпуска: 2010

Описание: С помощью современной компьютерной графики и, основываясь на передовых исследованиях в области космоса, создатели фильма смогли воссоздать то, что происходит на других планетах, в других галактиках, вообразить какие формы жизни могли бы развиться в других атмосферах. Вы сможете увидеть космические бедствия, параллельные вселенные, скорость света и узнать многое другое о тайнах космоса.
Они глаза и уши человечества в открытом космосе, исследующие равнины Марса, гейзеры Энцелада и сверкающие поверхности отдаленных звезд.




Видео: 1280x720 (16:9), 23.976 fps, AVC (High@L4.1) V_MPEG4, ~6897 kbps avg, 0.312 bit/pixel
Аудио: 48 kHz, AC-3, 2 ch, (Front: L R) ~448kbps avg



Video
ID: 1
Format: AVC
Format/Info: Advanced Video Codec
Format profile: High@L4.1
Format settings, CABAC: Yes
Format settings, ReFrames: 5 frames
Muxing mode: Header stripping
Codec ID: V_MPEG4/ISO/AVC
Duration: 43mn 47s
Bit rate: 6 897 Kbps
Width: 1 280 pixels
Height: 720 pixels
Display aspect ratio: 16:9
Frame rate: 23.976 fps
Color space: YUV
Chroma subsampling: 4:2:0
Bit depth: 8 bits
Scan type: Progressive
Bits/(Pixel*Frame): 0.312
Stream size: 2.11 GiB (92%)
Language: English

Audio
ID: 2
Format: AC-3
Format/Info: Audio Coding 3
Mode extension: CM (complete main)
Muxing mode: Header stripping
Codec ID: A_AC3
Duration: 43mn 47s
Bit rate mode: Constant
Bit rate: 448 Kbps
Channel(s): 2 channels
Channel positions: Front: L R
Sampling rate: 48.0 KHz
Bit depth: 16 bits
Compression mode: Lossy
Delay relative to video: 18ms
Stream size: 140 MiB (6%)







Поделиться:

Торрент:  Добавлен [02 апр 2012, 03:43]

Скачать торрент Магнет ссылка
Скачать торрент

Кем проверен:
 
Размер:  2.29 ГБ
Скачали:  37
Здоровье: 100%
Приватный:  Нет (DHT включён)
Наш партнёр



Вернуться к началу
 Профиль  
 
Начать новую тему Ответить на тему  [ 1 сообщение ] 
   Похожие торренты   Автор   Торрент   Размер 
В этой теме нет новых непрочитанных сообщений. Дикие Гавайи. Тайны морских глубин / National Geographic. Wild Hawaii. Secrets of the Deep (Карен Гринфилд) [2013, документальный, HDTVRip 720p] DUB / Blu-Ray / BDRip / HDTV

lana-mini

2 | 2

1.91 ГБ

В этой теме нет новых непрочитанных сообщений. Человеческая Вселенная (Сезон 1: 1-5 серии из 5) / BBC. Human Universe (Эндрю Коэн) [2014, документальный, BDRip 720р] DVO / Blu-Ray / BDRip / HDTV

lana-mini

10 | 2

10.15 ГБ

В этой теме нет новых непрочитанных сообщений. Тайны и ложь / Secrets & Lies / 1 сезон 1-10 серии из 10 [триллер, драма, детектив, 2015] WEB-DLRip, Dub [Кириллица]

jons3

214 | 66

7.23 ГБ

В этой теме нет новых непрочитанных сообщений. Тайны и ложь / Secrets & Lies [1 сезон: 1-4 серии из 6] (Кейт Дэннис, Питер Сэлмон) [Триллер, драма, 2014] WEB-DLRip, Mvo

ДжОкЕр

0 | 0

2.35 ГБ

В этой теме нет новых непрочитанных сообщений. Тайны и ложь / Secrets & Lies [1 сезон: 1-3 серии из 6] (Кейт Дэннис, Питер Сэлмон) [Триллер, драма, 2014] WEB-DLRip, Mvo

ДжОкЕр

0 | 0

1.76 ГБ




Вы не можете начинать темы
Вы не можете отвечать на сообщения
Вы не можете редактировать свои сообщения
Вы не можете удалять свои сообщения
Вы не можете добавлять вложения

Перейти:  
cron