Начать новую тему Ответить на тему
Статистика раздачи
Размер: 2.19 ГБ | Добавлен: 02 апр 2012, 03:43
Сидеров: 0    Личеров: 7
Автор Сообщение

СообщениеДобавлено: 02 апр 2012, 03:43 

Не в сети
Аватара пользователя
Раздал: 1.23 ГБ
Скачал: 6.82 ГБ
Ратио: 0.180
Спасибо: 416 / 1
Сообщения: 1400
Откуда: Урюпинск
Зарегистрирован: 30 мар 2012, 01:48
Путешествие по Млечному Пути / Inside the Milky Way
#77
Язык: Английский, cубтитры: отсутствуют
Формат: HDTVRip-AVC, MKV, H264, AC3
Страна: США
Жанр: документальный
Продолжительность: 01:31:25
Год выпуска: 2010
Описание: 200 000 000 000 звёзд, 1 000 000 000 планет и всё это наша родная галактика-Млечный Путь!
Нас ждёт грандиозное и захватывающее Путешествие по Млечному Пути, вы узнаете как рождалась галактика, её составляющее и будущее

Видео: 1280x720(16:9), 29.97fps, AVC MPEG4(x264), High@L4.1,3 037 Kbps avg, 0.110 bit/pixel
Аудио: 48.0 kHz,AC-3, 2 ch,~384kbps avg (Оригинал)
Общее
Уникальный идентификатор: 110442304805571073954078946619497610344 (0x53166A08B2A87916531A444E24A77C6
Полное имя: G:\фильмы\Inside the Milky Way.mkv
Формат: Matroska
Размер файла: 2,19 Гбайт
Продолжительность: 1 ч. 31 м.
Общий поток: 3422 Кбит/сек
Дата кодирования: UTC 2010-10-25 08:17:39
Программа кодирования: mkvmerge v4.3.0 ('Escape from the Island') built on Sep4 2010 16:18:04
Библиотека кодирования: libebml v1.0.0 + libmatroska v1.0.0

Видео
Идентификатор: 1
Формат: AVC
Формат/Информация: Advanced Video Codec
Профиль формата: High@L4.1
Параметр CABAC формата: Да
Параметр ReFrames формата: 4 кадра
Режим смешивания: Header stripping
Идентификатор кодека: V_MPEG4/ISO/AVC
Продолжительность: 1 ч. 31 м.
Битрейт: 3037 Кбит/сек
Ширина: 1280 пикс.
Высота: 720 пикс.
Соотношение сторон: 16:9
Частота кадров: 29,970 кадр/сек
Цветовое пространство: YUV
Подвыборка цветности: 4:2:0
Битовая глубина: 8 бит
Тип развёртки: Прогрессивная
Бит/(Пиксели*Кадры): 0.110
Размер потока: 1,90 Гбайт (87%)
Библиотека кодирования: x264 core 98 r1649 20cbe10
Настройки программы: cabac=1 / ref=5 / deblock=1:0:0 / analyse=0x3:0x113 / me=umh / subme=7 / psy=1 / psy_rd=1.00:0.00 / mixed_ref=1 / me_range=16 / chroma_me=1 / trellis=1 / 8x8dct=1 / cqm=0 / deadzone=21,11 / fast_pskip=0 / chroma_qp_offset=-2 / threads=10 / sliced_threads=0 / nr=0 / decimate=1 / interlaced=0 / constrained_intra=0 / bframes=3 / b_pyramid=1 / b_adapt=1 / b_bias=0 / direct=1 / weightb=1 / weightp=2 / keyint=300 / keyint_min=30 / scenecut=40 / intra_refresh=0 / rc_lookahead=40 / rc=2pass / mbtree=1 / bitrate=3037 / ratetol=1.0 / qcomp=0.60 / qpmin=10 / qpmax=51 / qpstep=4 / cplxblur=20.0 / qblur=0.5 / ip_ratio=1.40 / aq=1:1.00
Язык: English

Аудио
Идентификатор: 2
Формат: AC-3
Формат/Информация: Audio Coding 3
Расширение режима: CM (complete main)
Режим смешивания: Header stripping
Идентификатор кодека: A_AC3
Продолжительность: 1 ч. 31 м.
Вид битрейта: Постоянный
Битрейт: 384 Кбит/сек
Каналы: 2 канала
Расположение каналов: Front: L R
Частота: 48,0 КГц
Битовая глубина: 16 бит
Метод сжатия: С потерями
Размер потока: 251 Мбайт (11%)






Поделиться:

Торрент:  Добавлен [02 апр 2012, 03:43]

Скачать торрент Магнет ссылка
Скачать торрент

Кем проверен:
 
Размер:  2.19 ГБ
Скачали:  10
Здоровье: ???%
Приватный:  Нет (DHT включён)
Наш партнёр



Вернуться к началу
 Профиль  
 
Начать новую тему Ответить на тему  [ 1 сообщение ] 
   Похожие торренты   Автор   Торрент   Размер 
В этой теме нет новых непрочитанных сообщений. По млечному пути / On the Milky Road [Драма, 2016] WEBDLRip, Dub [iTunes]

jons3

536 | 138

1.37 ГБ

В этой теме нет новых непрочитанных сообщений. По млечному пути / On the Milky Road (драма, 2016) WEB-DLRip | iPad

marya111

120 | 15

1.96 ГБ

В этой теме нет новых непрочитанных сообщений. По млечному пути / On the Milky Road [драма, 2016] WEB-DLRip-AVC, Dub [iTunes]

jons3

725 | 209

3.68 ГБ

В этой теме нет новых непрочитанных сообщений. По млечному пути / On the Milky Road [драма, 2016] WEB-DL 1080p, Dub [iTunes]

jons3

1149 | 434

4.2 ГБ

В этой теме нет новых непрочитанных сообщений. По млечному пути / On the Milky Road (Драма, экранизация, 2016) WEB-DLRip от MegaPeer | iTunes

marya111

410 | 96

1.46 ГБ




Вы не можете начинать темы
Вы не можете отвечать на сообщения
Вы не можете редактировать свои сообщения
Вы не можете удалять свои сообщения
Вы не можете добавлять вложения

Перейти:  
cron