Начать новую тему Ответить на тему
Статистика раздачи
Размер: 8.65 ГБ | Добавлен: 02 апр 2012, 03:42
Сидеров: 4    Личеров: 4
Автор Сообщение

СообщениеДобавлено: 02 апр 2012, 03:42 

Не в сети
Аватара пользователя
Раздал: 1.23 ГБ
Скачал: 6.82 ГБ
Ратио: 0.180
Спасибо: 416 / 1
Сообщения: 1400
Откуда: Урюпинск
Зарегистрирован: 30 мар 2012, 01:48
Телескоп Хаббл / IMAX: Hubble 3D
#77
Перевод: Любительский (двухголосый), cубтитры: русские, английские
Формат: BDRemux 1080p, MKV, AVC, AC3/DTS-HDMA
Страна: Канада
Режиссер: Тони Майерс
Жанр: документальный
Продолжительность: 00:43:59
Год выпуска: 2010

В ролях: Скотт Олтмэн, Майкл Гуд, Грегори Джонсон, Майкл Массимино, Меган МакАртур

Описание: Используя визуальную мощь кинотеатров IMAX®, Hubble 3D позволит кинозрителям путешествовать через отдаленные галактики, исследовать великолепие и тайны нашей вселенной, и сопровождать работу астронавтов, на плечи которых возложены самые трудные и важные задачи в истории НАСА. Благодаря космическому телескопу Хаббл мы увидим вселенную такой, какой ее только можно увидеть в космосе с помощью самого мощного в мире телескопа.

[/field]
Рейтинг MPAA: G

Видео:1920x1080 (16:9), 23,976 fps,MPEG-4 AVC Video,High@L4.1 , ~23382 kbps avg, 0.511 bit/pixel
Аудио#1: Русский 48 kHz,AC3 Dolby Digital, 3/2 (L,C,R,l,r) + LFE ch,~640 kbps avg [Любительский (двухголосый)]
Аудио#2: Английский 48 kHz, DTS-HD Master Audio, 3/2 (L,C,R,l,r) + LFE ch, ~4122 kbps avg (DTS Core: 48 kHz, 6ch, ~1536 kbps ) [Оригинал]


Общее
Уникальный идентификатор: 241892267728308393405695897209905019057 (0xB5FAC19493EF1ADF865E75201566F8B1)
Полное имя: D:\Фильмы\imax_hubble.mkv
Формат: Matroska
Размер файла: 8,65 Гбайт
Продолжительность: 43 м.
Общий поток: 28,1 Мбит/сек
Дата кодирования: UTC 2011-05-08 15:42:55
Программа кодирования: mkvmerge v3.4.0 ('Rapunzel') сборка от May 15 2010 09:38:20
Библиотека кодирования: libebml v0.8.0 + libmatroska v0.9.0

Видео
Идентификатор: 1
Формат: AVC
Формат/Информация: Advanced Video Codec
Профиль формата: High@L4.1
Параметр CABAC формата: Да
Параметр ReFrames формата: 3 кадра
Идентификатор кодека: V_MPEG4/ISO/AVC
Продолжительность: 43 м.
Вид битрейта: Переменный
Битрейт: 25,4 Мбит/сек
Максимальный битрейт: 40,0 Мбит/сек
Ширина: 1920 пикс.
Высота: 1080 пикс.
Соотношение сторон: 16:9
Частота кадров: 23,976 кадр/сек
Стандарт вещания: NTSC
Цветовое пространство: YUV
Подвыборка цветности: 4:2:0
Битовая глубина: 8 бит
Тип развёртки: Прогрессивная
Бит/(Пиксели*Кадры): 0.511
Размер потока: 7,80 Гбайт (90%)
Заголовок: Hubble_3D
Язык: English

Аудио #1
Идентификатор: 2
Формат: AC-3
Формат/Информация: Audio Coding 3
Расширение режима: CM (complete main)
Идентификатор кодека: A_AC3
Продолжительность: 43 м.
Вид битрейта: Постоянный
Битрейт: 640 Кбит/сек
Каналы: 6 каналов
Расположение каналов: Front: L C R, Side: L R, LFE
Частота: 48,0 КГц
Битовая глубина: 16 бит
Метод сжатия: С потерями
Размер потока: 201 Мбайт (2%)
Заголовок: 3D-RuGroup, AC3, 5.1, 640 kbps, 16 bit
Язык: Russian

Аудио #2
Идентификатор: 3
Формат: DTS
Формат/Информация: Digital Theater Systems
Профиль формата: MA / Core
Идентификатор кодека: A_DTS
Продолжительность: 43 м.
Вид битрейта: Переменный
Битрейт: 1561 Кбит/сек / 1510 Кбит/сек
Каналы: 6 каналов
Расположение каналов: Front: L C R, Side: L R, LFE
Частота: 48,0 КГц
Битовая глубина: 24 бит
Метод сжатия: Без потерь / Lossy
Заголовок: Original, DTS-HD Master Audio, 5.1, 4122 kbps, 24 bit, Lossless (1536 kbps core)
Язык: English

Текст #1
Идентификатор: 4
Формат: UTF-8
Идентификатор кодека: S_TEXT/UTF8
Идентификатор кодека/Информация: UTF-8 Plain Text
Язык: Russian

Текст #2
Идентификатор: 5
Формат: UTF-8
Идентификатор кодека: S_TEXT/UTF8
Идентификатор кодека/Информация: UTF-8 Plain Text
Язык: English

Меню
00:00:00.000: en:CHAPTER01
00:09:57.597: en:CHAPTER02
00:20:22.680: en:CHAPTER03
00:30:20.902: en:CHAPTER04
00:42:01.227: en:CHAPTER05








Поделиться:

Торрент:  Добавлен [02 апр 2012, 03:42]

Скачать торрент Магнет ссылка
Скачать торрент

Кем проверен:
 
Размер:  8.65 ГБ
Скачали:  51
Здоровье: 100%
Приватный:  Нет (DHT включён)
Наш партнёр



Вернуться к началу
 Профиль  
 
Начать новую тему Ответить на тему  [ 1 сообщение ] 
   Похожие торренты   Автор   Торрент   Размер 
В этой теме нет новых непрочитанных сообщений. IMAX. На глубине (Жизнь глубин) / IMAX. Into the Deep (Ховард Холл) [1994, документальный, видовой, музыка, Blu-Ray Remux 1080p 2D + 3D] VO / Фильмы в 3D (Blu-Ray

lana-mini

3 | 2

12.73 ГБ

В этой теме нет новых непрочитанных сообщений. IMAX. Арктика 3D [Горизонтальная стереопара] / IMAX. To the Arctic 3D [Half Side-by-Side] (Грег МакГилври) [2012, документальный, BDRip 1080p] DVO / Фильмы в 3D (Blu-Ray

lana-mini

9 | 2

5.52 ГБ

В этой теме нет новых непрочитанных сообщений. Дюнкерк / Dunkirk [Военный, драма, история, 2017] BDRemux 1080p, Dub [IMAX] [Лицензия]

jons3

145 | 10

26.31 ГБ

В этой теме нет новых непрочитанных сообщений. Дюнкерк / Dunkirk [Военный, драма, история, 2017] BDRemux 1080p, Dub [IMAX] [Лицензия]

jons3

154 | 49

28.12 ГБ

В этой теме нет новых непрочитанных сообщений. Доктор Стрэндж / Doctor Strange ( Фантастика, фэнтези, боевик, приключения, 2016) BDRemux 1080p от ExKinoRay | IMAX Edition | iTunes

marya111

79 | 48

26.12 ГБ




Вы не можете начинать темы
Вы не можете отвечать на сообщения
Вы не можете редактировать свои сообщения
Вы не можете удалять свои сообщения
Вы не можете добавлять вложения

Перейти:  
cron