Начать новую тему Ответить на тему
Статистика раздачи
Размер: 7.76 ГБ | Добавлен: 14 июн 2018, 20:51
Сидеров: 41    Личеров: 18
Автор Сообщение

СообщениеДобавлено: 14 июн 2018, 20:51 

Не в сети
Администратор
Аватара пользователя
Раздал: 10.12 ГБ
Скачал: 5.39 ГБ
Ратио: 1.877
Спасибо: 8469 / 58
Сообщения: 29393
Зарегистрирован: 31 дек 2013, 23:53
Год выпуска: 2014
Жанр: Драма, криминал
Режиссер: Джей Си Чендор

В ролях: Оскар Айзек, Джессика Честейн, Дэвид Ойелоуо, Алессандро Нивола, Альберт Брукс, Элиес Габел, Каталина Сандино Морено, Питер Герети, Кристофер Эбботт, Эшли Уильямс, Джон Прокаччино, Гленн Флешлер, Джерри Эдлер, Энни Функе, Мэттью Мехер, Дэвид Маргулис, Пико Александр, Ник Бэйли, Сьюзэн Блэкуэлл, Дэвид Бостон

О фильме:
События фильма разворачиваются преимущественно на Манхэттене начала 1980-х годов, когда был зафиксирован всплеск уровня преступности. Главный герой — иммигрант из латинской Америки, прибывший в США с амбициозными мечтами и вскоре действительно добившийся большого успеха в бизнесе. Однако уличная преступность, охватившая Нью-Йорк, коррупция и моральное разложение создают для него и его семьи большие проблемы.



Выпущено: США
Продолжительность: 02:04:56
Перевод: Любительский одноголосый [Paul Bunyan]

Файл
Качество: BDRip (1080p)
Видео: MPEG-4 AVC, 6099 Кбит/с, 1920x800
Аудио#1: Русский (DTS, 6 ch, 1510 Кбит/с)
Аудио#2: Русский (AC3, 6 ch, 640 Кбит/с)
Аудио#3: Английский (AC3, 6 ch, 640 Кбит/с)

Сэмпл

Формат : Matroska
Версия формата : Version 2
Размер файла : 7,76 Гбайт
Продолжительность : 2 ч. 4 м.
Общий поток : 8889 Кбит/сек
Название фильма : ~V ad~
Дата кодирования : UTC 2015-03-31 14:53:35
Программа кодирования : mkvmerge v6.1.0 ('Old Devil') built on Mar 4 2013 09:10:42
Библиотека кодирования : libebml v1.3.0 + libmatroska v1.4.0
Обложка : Yes

Видео
Идентификатор : 1
Формат : AVC
Формат/Информация : Advanced Video Codec
Профиль формата : High@L4.1
Параметр CABAC формата : Да
Параметр ReFrames формата : 5 кадров
Идентификатор кодека : V_MPEG4/ISO/AVC
Продолжительность : 2 ч. 4 м.
Битрейт : 6099 Кбит/сек
Ширина : 1920 пикселей
Высота : 800 пикселей
Соотношение сторон : 2,40:1
Режим частоты кадров : Постоянный
Частота кадров : 23,976 кадра/сек
Цветовое пространство : YUV
Субдискретизация насыщенности : 4:2:0
Битовая глубина : 8 бит
Тип развёртки : Прогрессивная
Бит/(Пиксели*Кадры) : 0.166
Размер потока : 5,17 Гбайт (67%)
Заголовок : ~V~
Библиотека кодирования : x264 core 142 r0+4281 a3bf0d5 Test [8-bit@all X86_64]
Настройки программы : cabac=1 / ref=5 / deblock=1:-3:-3 / analyse=0x3:0x133 / me=umh / subme=11 / psy=1 / fade_compensate=0.00 / psy_rd=1.00:0.00 / mixed_ref=1 / me_range=32 / chroma_me=1 / trellis=2 / 8x8dct=1 / cqm=0 / deadzone=21,11 / fast_pskip=0 / chroma_qp_offset=-1 / threads=12 / lookahead_threads=1 / sliced_threads=0 / nr=0 / decimate=0 / interlaced=0 / bluray_compat=0 / constrained_intra=0 / fgo=0 / bframes=9 / b_pyramid=2 / b_adapt=2 / b_bias=0 / direct=3 / weightb=1 / open_gop=0 / weightp=2 / keyint=240 / keyint_min=23 / scenecut=40 / intra_refresh=0 / rc=2pass / mbtree=0 / bitrate=6099 / ratetol=1.0 / qcomp=0.60 / qpmin=0:0:0 / qpmax=69:69:69 / qpstep=4 / cplxblur=20.0 / qblur=0.5 / ip_ratio=1.40 / pb_ratio=1.30 / aq=1:0.90 / aq-sensitivity=9.00 / aq-factor=1.00:1.00:1.00 / aq2=1:0.60 / aq2-sensitivity=14.00 / aq2-factor=1.00:1.00:1.00 / aq3=1:[0.60:0.60]:[0.60:0.60]:[0.60:0.60]:[0.60:0.60] / aq3-sensitivity=9.00 / aq3-factor=[1.00:1.00]:[1.00:1.00]:[1.00:1.00] / aq3-boundary=192:64:24
Язык : English
Default : Да
Forced : Нет

Аудио #1
Идентификатор : 2
Формат : DTS
Формат/Информация : Digital Theater Systems
Режим : 16
Параметр Endianness формата : Big
Идентификатор кодека : A_DTS
Продолжительность : 2 ч. 4 м.
Вид битрейта : Постоянный
Битрейт : 1510 Кбит/сек
Каналы : 6 каналов
Расположение каналов : Front: L C R, Side: L R, LFE
Частота : 48,0 КГц
Битовая глубина : 24 бит
Метод сжатия : С потерями
Размер потока : 1,32 Гбайт (17%)
Заголовок : DTS, 1510 kbps, 24-bit, 5.1 [Paul Bunyan]
Язык : Russian
Default : Да
Forced : Да

Аудио #2
Идентификатор : 3
Формат : AC-3
Формат/Информация : Audio Coding 3
Расширение режима : CM (complete main)
Параметр Endianness формата : Big
Идентификатор кодека : A_AC3
Продолжительность : 2 ч. 4 м.
Вид битрейта : Постоянный
Битрейт : 640 Кбит/сек
Каналы : 6 каналов
Расположение каналов : Front: L C R, Side: L R, LFE
Частота : 48,0 КГц
Битовая глубина : 16 бит
Метод сжатия : С потерями
Размер потока : 572 Мбайт (7%)
Заголовок : AC3, 640 kbps, 16-bit, 5.1 [Paul Bunyan]
Язык : Russian
Default : Нет
Forced : Нет

Аудио #3
Идентификатор : 4
Формат : AC-3
Формат/Информация : Audio Coding 3
Расширение режима : CM (complete main)
Параметр Endianness формата : Big
Идентификатор кодека : A_AC3
Продолжительность : 2 ч. 4 м.
Вид битрейта : Постоянный
Битрейт : 640 Кбит/сек
Каналы : 6 каналов
Расположение каналов : Front: L C R, Side: L R, LFE
Частота : 48,0 КГц
Битовая глубина : 16 бит
Метод сжатия : С потерями
Размер потока : 572 Мбайт (7%)
Заголовок : AC3, 640 kbps, 16-bit, 5.1
Язык : English
Default : Нет
Forced : Нет

Меню
00:00:00.000 : en:Chapter 01
00:09:19.642 : en:Chapter 02
00:13:44.240 : en:Chapter 03
00:20:48.330 : en:Chapter 04
00:27:38.198 : en:Chapter 05
00:36:31.063 : en:Chapter 06
00:44:45.349 : en:Chapter 07
00:50:33.697 : en:Chapter 08
00:57:57.974 : en:Chapter 09
01:08:19.345 : en:Chapter 10
01:13:22.272 : en:Chapter 11
01:23:07.357 : en:Chapter 12
01:31:17.221 : en:Chapter 13
01:39:54.029 : en:Chapter 14
01:50:43.094 : en:Chapter 15
01:56:46.249 : en:Chapter 16
x264 [info]: frame I:1033 Avg QP:10.74 size:184781
x264 [info]: frame P:32080 Avg QP:13.18 size: 67033
x264 [info]: frame B:146619 Avg QP:13.87 size: 22992


Релиз от:[/font]

Торрент:  Добавлен [14 июн 2018, 20:51]

Скачать торрент Магнет ссылка
Скачать торрент

Кем проверен:
 by jons3 (14 июн 2018, 20:51)
Размер:  7.76 ГБ
Скачали:  92
Здоровье: 100%
Приватный:  Нет (DHT включён)
Наш партнёр


_________________
Проголосуй за трекер RuTracker - Лучший торрент трекер


Вернуться к началу
 Профиль  
 
Начать новую тему Ответить на тему  [ 1 сообщение ] 
   Похожие торренты   Автор   Торрент   Размер 
В этой теме нет новых непрочитанных сообщений. Жестокий полицейский / Violent cop [боевик, триллер, драма, криминал, 1989] BDRip 720p, Dvo+Sub

jons3

50 | 14

6.33 ГБ

В этой теме нет новых непрочитанных сообщений. Жестокий прокурор / A Violent Prosecutor / Geomsawejeon [криминал, 2016] BDRemux 1080p, Dvo

jons3

10 | 8

21.94 ГБ

В этой теме нет новых непрочитанных сообщений. Жестокий полицейский / Violent Cop [боевик, триллер, драма, 1989] HDRip, Dvo

jons3

54 | 13

1.45 ГБ

В этой теме нет новых непрочитанных сообщений. Жестокий прокурор / Geomsawejeon [Криминал, драма, детектив, 2016] BDRip 1080p, Dvo

jons3

57 | 19

9.41 ГБ

В этой теме нет новых непрочитанных сообщений. Жестокий ручей / Mean Creek [драма, криминал, 2004] WEB-DL 1080p, Dvo

jons3

0 | 0

3.75 ГБ




Вы не можете начинать темы
Вы не можете отвечать на сообщения
Вы не можете редактировать свои сообщения
Вы не можете удалять свои сообщения
Вы не можете добавлять вложения

Перейти:  
cron