Начать новую тему Ответить на тему
Статистика раздачи
Размер: 2.29 ГБ | Добавлен: 13 фев 2018, 21:56
Сидеров: 0    Личеров: 0
Автор Сообщение

СообщениеДобавлено: 13 фев 2018, 21:56 

Не в сети
Администратор
Аватара пользователя
Раздал: 10.12 ГБ
Скачал: 5.39 ГБ
Ратио: 1.877
Спасибо: 8466 / 58
Сообщения: 29368
Зарегистрирован: 31 дек 2013, 23:53
Год выхода: 2018
Жанр: ужасы
Режиссер: Стивен Джудд

В ролях: Леонард Робертс, Джэми Хилл, Ханна Миддлтон, Карли Стил, Камерон Бауэн, Сидни Эллисон, Эдуард Гелхаус, Крис Хэйес, Прессли Кокер, Марина Орлова и другие

О фильме:
Компания незнакомых молодых людей просыпается запертой в закрытом помещении. Каждый из них обладает какими-то своими физическими особенностями и каждый из них теперь участник игры. Правила просты; есть дверь, есть ключ и только один из них может выйти.



Страна: США, Sunday Funday Films, Untethered Productions, 2nd Nature Films
Продолжительность: 01:32:32
Перевод: Любительский (двухголосый закадровый) | HiWay Grope

Файл
Кодек: MPEG-4 AVC/H.264
Качество: WEBRip 720p
Видео: 1280x720, 23.976 fps, ~3253 kbps avg, 0.147 bit/pixel
Аудио rus: AC3, 48 kHz, 6 ch, 224 Kbps

Реклама: присутствует



Семпл

General
Unique ID : 244024934197967278254929606519979800711 (0xB7957E27CE76D827854988A36A407887)
Complete name : E:Headgame.2018.720p.WEBRip.HiWayGropeHeadgame.2018.720p.WEBRip.HiWayGrope.mkv
Format : Matroska
Format version : Version 4 / Version 2
File size : 2.29 GiB
Duration : 1h 32mn
Overall bit rate : 3 548 Kbps
Encoded date : UTC 2018-02-13 15:41:26
Writing application : mkvmerge v18.0.0 ('Apricity') 64-bit
Writing library : libebml v1.3.5 + libmatroska v1.4.8

Video
ID : 1
Format : AVC
Format/Info : Advanced Video Codec
Format profile : Main@L4.1
Format settings, CABAC : Yes
Format settings, ReFrames : 3 frames
Codec ID : V_MPEG4/ISO/AVC
Duration : 1h 32mn
Bit rate : 3 253 Kbps
Width : 1 280 pixels
Height : 720 pixels
Display aspect ratio : 16:9
Frame rate mode : Constant
Frame rate : 23.976 (24000/1001) fps
Standard : PAL
Color space : YUV
Chroma subsampling : 4:2:0
Bit depth : 8 bits
Scan type : Progressive
Bits/(Pixel*Frame) : 0.147
Stream size : 2.10 GiB (92%)
Language : English
Default : Yes
Forced : No
Color range : Limited
Color primaries : BT.709
Transfer characteristics : BT.709
Matrix coefficients : BT.709

Audio
ID : 2
Format : AC-3
Format/Info : Audio Coding 3
Mode extension : CM (complete main)
Format settings, Endianness : Big
Codec ID : A_AC3
Duration : 1h 32mn
Bit rate mode : Constant
Bit rate : 224 Kbps
Channel(s) : 6 channels
Channel positions : Front: L C R, Side: L R, LFE
Sampling rate : 48.0 KHz
Frame rate : 31.250 fps (1536 spf)
Compression mode : Lossy
Stream size : 148 MiB (6%)
Title : rus
Language : Russian
Default : Yes
Forced : No



Релиз от: HiWay Grope

Торрент:  Добавлен [13 фев 2018, 21:56]

Скачать торрент Магнет ссылка
Скачать торрент

Кем проверен:
 by jons3 (13 фев 2018, 21:57)
Размер:  2.29 ГБ
Скачали:  0
Здоровье: 0%
Приватный:  Нет (DHT включён)
Наш партнёр


_________________
Проголосуй за трекер RuTracker - Лучший торрент трекер


Вернуться к началу
 Профиль  
 
Начать новую тему Ответить на тему  [ 1 сообщение ] 
   Похожие торренты   Автор   Торрент   Размер 
В этой теме нет новых непрочитанных сообщений. Смертельная игра / Headgame [ужасы, 2018] WEBRip, Dvo

jons3

0 | 0

1.37 ГБ

В этой теме нет новых непрочитанных сообщений. Смертельная игра / Headgame [ужасы, 2018] HDRip 720p, Mvo [GreenРай Studio]

jons3

5 | 4

1.43 ГБ

В этой теме нет новых непрочитанных сообщений. Смертельная игра / Headgame [ужасы, 2018] HDRip, Mvo [GreenРай Studio]

jons3

0 | 0

1.37 ГБ

В этой теме нет новых непрочитанных сообщений. Смертельная гонка 4: Вне анархии / Death Race 4: Beyond Anarchy [боевик, 2018] WEBRip 720p, Mvo [GreenРай Studio]

jons3

83 | 31

2.91 ГБ

В этой теме нет новых непрочитанных сообщений. Шпионская игра / The Catcher Was a Spy [Триллер, приключения, 2018] WEBRip 720p, Dvo

jons3

665 | 244

3.23 ГБ




Вы не можете начинать темы
Вы не можете отвечать на сообщения
Вы не можете редактировать свои сообщения
Вы не можете удалять свои сообщения
Вы не можете добавлять вложения

Перейти:  
cron